[ create a new paste ] login | about

Link: http://codepad.org/7M13tKs9    [ raw code | fork ]

Plain Text, pasted on Jun 17:
[CUETools log; Date: 6/17/2016 9:05:02 AM; Version: 2.1.5]
[CTDB TOCID: u_ZJyzIBX6NMNt5NktrTZlsqpDM-] found.
Track | CTDB Status
  1   | (854/865) Accurately ripped
  2   | (856/865) Accurately ripped
  3   | (860/865) Accurately ripped
  4   | (860/865) Accurately ripped
  5   | (858/865) Accurately ripped
  6   | (853/865) Accurately ripped
  7   | (857/865) Accurately ripped
  8   | (858/865) Accurately ripped
  9   | (854/865) Accurately ripped
 10   | (858/865) Accurately ripped
 11   | (858/865) Accurately ripped
 12   | (857/865) Accurately ripped
 13   | (855/865) Accurately ripped
 14   | (851/865) Accurately ripped
 15   | (826/865) Accurately ripped, or (15/865) differs in 77828 samples @04:54:40-04:55:36, or (2/865) differs in 9615 samples @04:55:28-04:55:37, or (2/865) differs in 9554 samples @04:55:28-04:55:37
[AccurateRip ID: 0029a3b6-01d9046c-da12140f] found.
Track   [  CRC   |   V2   ] Status
 01     [f774a77a|87b95067] (200+200/887) Accurately ripped
 02     [619c688a|35f740ef] (200+200/894) Accurately ripped
 03     [f109972d|f3e855fd] (200+200/893) Accurately ripped
 04     [8c3e660f|6a02f7c8] (200+200/892) Accurately ripped
 05     [a3b0debf|fce45664] (200+200/899) Accurately ripped
 06     [1457b844|f0d32c78] (200+200/895) Accurately ripped
 07     [c559e1c7|ba3e9ecc] (200+200/893) Accurately ripped
 08     [f4fead4b|7edb74f8] (200+200/897) Accurately ripped
 09     [25f15d4a|935cbc8c] (200+200/898) Accurately ripped
 10     [12e82687|e568a477] (200+200/889) Accurately ripped
 11     [9e94fdf8|6870c622] (200+200/888) Accurately ripped
 12     [c4534385|2ff7976a] (200+200/887) Accurately ripped
 13     [3f2c1276|c32ba5af] (200+200/886) Accurately ripped
 14     [4d0fc21d|943532b3] (200+200/884) Accurately ripped
 15     [609b4e85|41143560] (200+200/869) Accurately ripped
Offsetted by -1723:
 01     [3684e1f1] (003/887) Accurately ripped
 02     [6831d572] (003/894) Accurately ripped
 03     [786ed69b] (003/893) Accurately ripped
 04     [11e629fa] (003/892) Accurately ripped
 05     [186101d6] (003/899) Accurately ripped
 06     [4c63d4aa] (003/895) Accurately ripped
 07     [333be9c6] (003/893) Accurately ripped
 08     [adb82087] (003/897) Accurately ripped
 09     [806c6cd2] (003/898) Accurately ripped
 10     [8f114e34] (003/889) Accurately ripped
 11     [2a7265dc] (003/888) Accurately ripped
 12     [f2304baf] (003/887) Accurately ripped
 13     [2ffb8e9c] (003/886) Accurately ripped
 14     [0a1ca3e5] (003/884) Accurately ripped
 15     [9581fa54] (003/869) Accurately ripped
Offsetted by -835:
 01     [4bac6730] (002/887) Accurately ripped
 02     [e4b6f84f] (002/894) Accurately ripped
 03     [040df33f] (002/893) Accurately ripped
 04     [3cdb254e] (002/892) Accurately ripped
 05     [ee24cd44] (002/899) Accurately ripped
 06     [b72f7326] (002/895) Accurately ripped
 07     [f7482493] (002/893) Accurately ripped
 08     [6ffcb5d6] (002/897) Accurately ripped
 09     [d255550f] (002/898) Accurately ripped
 10     [f39fa1be] (002/889) Accurately ripped
 11     [d9a1340d] (002/888) Accurately ripped
 12     [f36d65e7] (002/887) Accurately ripped
 13     [4310c697] (002/886) Accurately ripped
 14     [46108bed] (002/884) Accurately ripped
 15     [7a592b36] (002/869) Accurately ripped
Offsetted by -533:
 01     [9a14b3a6] (076/887) Accurately ripped
 02     [6c55d3ec] (079/894) Accurately ripped
 03     [8393fe47] (081/893) Accurately ripped
 04     [158636ea] (080/892) Accurately ripped
 05     [ab7372a8] (080/899) Accurately ripped
 06     [18756abb] (080/895) Accurately ripped
 07     [72a6d3d3] (079/893) Accurately ripped
 08     [7961326e] (081/897) Accurately ripped
 09     [dc2af97e] (081/898) Accurately ripped
 10     [7211f273] (078/889) Accurately ripped
 11     [b52c58b3] (076/888) Accurately ripped
 12     [032214aa] (079/887) Accurately ripped
 13     [93658986] (077/886) Accurately ripped
 14     [5b688b3e] (076/884) Accurately ripped
 15     [22e7374d] (076/869) Accurately ripped
Offsetted by -324:
 01     [0234ff49] (174/887) Accurately ripped
 02     [1d6b7818] (179/894) Accurately ripped
 03     [4bd43d80] (176/893) Accurately ripped
 04     [94141e2f] (178/892) Accurately ripped
 05     [b305f4bb] (182/899) Accurately ripped
 06     [7bf6ad80] (180/895) Accurately ripped
 07     [d12fb612] (179/893) Accurately ripped
 08     [438bc5f8] (180/897) Accurately ripped
 09     [d226fcda] (178/898) Accurately ripped
 10     [c2101c2e] (177/889) Accurately ripped
 11     [9334c092] (176/888) Accurately ripped
 12     [27177344] (176/887) Accurately ripped
 13     [db24beaf] (173/886) Accurately ripped
 14     [18f0fd61] (172/884) Accurately ripped
 15     [891a1fb0] (163/869) Accurately ripped
Offsetted by -239:
 01     [8068cd6a] (004/887) Accurately ripped
 02     [a97f1c1e] (004/894) Accurately ripped
 03     [b1034b2d] (004/893) Accurately ripped
 04     [5dbc2ef4] (004/892) Accurately ripped
 05     [9c501917] (004/899) Accurately ripped
 06     [5454e211] (004/895) Accurately ripped
 07     [2edd663c] (004/893) Accurately ripped
 08     [7bbe7e9c] (004/897) Accurately ripped
 09     [6c62c98f] (004/898) Accurately ripped
 10     [ea152d36] (004/889) Accurately ripped
 11     [5688c84e] (004/888) Accurately ripped
 12     [6f3cc415] (004/887) Accurately ripped
 13     [7ed25500] (004/886) Accurately ripped
 14     [83488fe5] (004/884) Accurately ripped
 15     [fd388cc3] (004/869) Accurately ripped
Offsetted by -838:
 01     [b0dafe45] (000/887) No match (V2 was not tested)
 02     [39b9c558] (000/894) No match (V2 was not tested)
 03     [57cdf5ab] (000/893) No match (V2 was not tested)
 04     [1d4fdad4] (000/892) No match (V2 was not tested)
 05     [2de79d9f] (000/899) No match (V2 was not tested)
 06     [74c01f77] (000/895) No match (V2 was not tested)
 07     [188bba0a] (000/893) No match (V2 was not tested)
 08     [813458d4] (000/897) No match (V2 was not tested)
 09     [77198130] (000/898) No match (V2 was not tested)
 10     [12076f17] (000/889) No match (V2 was not tested)
 11     [f8188252] (000/888) No match (V2 was not tested)
 12     [26c86dbd] (000/887) No match (V2 was not tested)
 13     [c1dd359a] (000/886) No match (V2 was not tested)
 14     [dc77c6f3] (000/884) No match (V2 was not tested)
 15     [fed5e014] (000/869) No match (V2 was not tested)
Offsetted by -667:
 01     [255c2001] (000/887) No match (V2 was not tested)
 02     [d63af973] (000/894) No match (V2 was not tested)
 03     [6dfa6771] (000/893) No match (V2 was not tested)
 04     [e4495034] (000/892) No match (V2 was not tested)
 05     [8bad0d67] (000/899) No match (V2 was not tested)
 06     [878acd37] (000/895) No match (V2 was not tested)
 07     [e9bcccd6] (000/893) No match (V2 was not tested)
 08     [68bdb8ce] (000/897) No match (V2 was not tested)
 09     [957413f7] (000/898) No match (V2 was not tested)
 10     [0bb99e38] (000/889) No match (V2 was not tested)
 11     [e7aab0e0] (000/888) No match (V2 was not tested)
 12     [ddc13d12] (000/887) No match (V2 was not tested)
 13     [3cd2119b] (000/886) No match (V2 was not tested)
 14     [bb039f7a] (000/884) No match (V2 was not tested)
 15     [5ee5d8ec] (000/869) No match (V2 was not tested)
Offsetted by -539:
 01     [71070d97] (002/887) Accurately ripped
 02     [d03f5a42] (002/894) Accurately ripped
 03     [411d5005] (002/893) Accurately ripped
 04     [b4a8d4c1] (002/892) Accurately ripped
 05     [8b9da0fc] (002/899) Accurately ripped
 06     [8666fedf] (002/895) Accurately ripped
 07     [fa95570b] (002/893) Accurately ripped
 08     [68a244f2] (002/897) Accurately ripped
 09     [d27bf5fc] (002/898) Accurately ripped
 10     [045feec2] (002/889) Accurately ripped
 11     [838a15cc] (002/888) Accurately ripped
 12     [fa026ea2] (002/887) Accurately ripped
 13     [455f99e9] (002/886) Accurately ripped
 14     [61b40c89] (000/884) No match (V2 was not tested)
 15     [1d89ec42] (000/869) No match
Offsetted by -456:
 01     [2e8cc4db] (000/887) No match
 02     [6b2b3d82] (000/894) No match
 03     [fed08f39] (000/893) No match
 04     [a5e2488c] (000/892) No match
 05     [b88c6caf] (000/899) No match
 06     [63ba0f9d] (000/895) No match
 07     [16c105f2] (000/893) No match
 08     [ac9a232b] (000/897) No match
 09     [9be775f7] (000/898) No match
 10     [b7527293] (000/889) No match
 11     [ffae18e8] (000/888) No match
 12     [41f28695] (000/887) No match
 13     [537ceaef] (000/886) No match
 14     [6eec8112] (000/884) No match
 15     [806572fa] (002/869) Accurately ripped
Offsetted by -390:
 01     [32b06113] (000/887) No match (V2 was not tested)
 02     [c62820dd] (000/894) No match
 03     [b000ef51] (000/893) No match
 04     [bcbb5c65] (000/892) No match
 05     [ae4e8224] (000/899) No match
 06     [113987e6] (000/895) No match
 07     [8f5c3edf] (000/893) No match
 08     [809a37cb] (000/897) No match
 09     [34a60a0f] (000/898) No match
 10     [c24f3b21] (000/889) No match
 11     [89311225] (000/888) No match
 12     [623ba042] (000/887) No match
 13     [5b7b9a5b] (000/886) No match
 14     [21b76652] (000/884) No match
 15     [7e884124] (000/869) No match
Offsetted by -318:
 01     [54d8e80b] (000/887) No match
 02     [2d526fab] (000/894) No match
 03     [ce5d67ef] (000/893) No match
 04     [00dcb179] (000/892) No match
 05     [128a2f1a] (000/899) No match
 06     [bcffc757] (000/895) No match
 07     [269a307b] (000/893) No match
 08     [d024144d] (002/897) Accurately ripped
 09     [8df1046b] (000/898) No match
 10     [50dad45d] (000/889) No match
 11     [550e63f2] (000/888) No match
 12     [d8be185d] (000/887) No match
 13     [35358469] (000/886) No match
 14     [15f0fdbd] (000/884) No match
 15     [686fa60c] (000/869) No match
Offsetted by -132:
 01     [444b5c1d] (000/887) No match (V2 was not tested)
 02     [e265ddff] (000/894) No match (V2 was not tested)
 03     [214bcbf3] (000/893) No match (V2 was not tested)
 04     [cc154ba6] (000/892) No match (V2 was not tested)
 05     [85dc76ce] (000/899) No match (V2 was not tested)
 06     [4fe4310c] (000/895) No match (V2 was not tested)
 07     [7d715a26] (000/893) No match (V2 was not tested)
 08     [4a063d61] (000/897) No match (V2 was not tested)
 09     [3b8d0b1f] (000/898) No match (V2 was not tested)
 10     [6bc8ecbf] (000/889) No match (V2 was not tested)
 11     [cc03c804] (000/888) No match (V2 was not tested)
 12     [f04102c9] (000/887) No match (V2 was not tested)
 13     [75e4e3d8] (000/886) No match (V2 was not tested)
 14     [ae57b504] (000/884) No match (V2 was not tested)
 15     [90d00cbe] (000/869) No match (V2 was not tested)
Offsetted by 6:
 01     [c8994cdf] (000/887) No match
 02     [c0bfe7db] (000/894) No match
 03     [9c71f52f] (000/893) No match
 04     [294fba77] (000/892) No match
 05     [dfe64883] (000/899) No match
 06     [a99523fc] (000/895) No match
 07     [805d2c62] (000/893) No match
 08     [465918b4] (000/897) No match
 09     [3ae0c000] (000/898) No match
 10     [499c1eb5] (000/889) No match (V2 was not tested)
 11     [473ac20e] (000/888) No match
 12     [dcacd5bd] (000/887) No match
 13     [99acd2c3] (000/886) No match
 14     [59f2bc09] (000/884) No match
 15     [3fa02327] (000/869) No match

Track Peak [ CRC32  ] [W/O NULL] [  LOG   ]
 --  100.0 [F3E63E30] [00F83A16]   CRC32   
 01   99.9 [2E078BD5] [D550F455]           
 02   98.5 [BF4BA6BD] [81DE0378]           
 03   97.3 [48C7A875] [85E59F1B]           
 04  100.0 [085343E3] [B2153F8F]           
 05  100.0 [3B98AED8] [F570AC3C]           
 06   98.2 [8D6F9862] [B8B1C5E8]           
 07  100.0 [617F6A82] [9089B3DC]           
 08  100.0 [03AC531A] [AEF18D1D]           
 09  100.0 [79E8B26C] [0695DE3E]           
 10   97.7 [75B10048] [AEBE2F7E]           
 11  100.0 [18FF6377] [0F143F67]           
 12  100.0 [79B2F4A8] [3362589F]           
 13  100.0 [8F0549B9] [FCD100A4]           
 14   95.1 [2C0649BA] [E6341792]           
 15  100.0 [DA29702C] [AE446319]           



Create a new paste based on this one


Comments: