[ create a new paste ] login | about

Link: http://codepad.org/7MkQgjCY    [ raw code | fork ]

Plain Text, pasted on Dec 18:
foobar2000 1.6 / Dynamic Range Meter 1.1.1
log date: 2020-12-18 18:48:18

--------------------------------------------------------------------------------
Analyzed: Rosemary Clooney / White Christmas
--------------------------------------------------------------------------------

DR         Peak         RMS     Duration Track
--------------------------------------------------------------------------------
DR11      -2.89 dB   -24.24 dB      3:52 01-The Christmas Song
DR15      -0.01 dB   -24.43 dB      3:11 02-Let It Snow
DR10      -6.62 dB   -24.41 dB      0:42 03-Joy To The World
DR11      -1.96 dB   -24.50 dB      3:31 04-I'll be Home For Christmas
DR13      -1.90 dB   -23.36 dB      2:21 05-It's The Most Wonderful Time Of The Year
DR13      -6.00 dB   -27.87 dB      3:31 06-Have Yourself A Merry Little Christmas
DR13      -2.60 dB   -24.05 dB      3:30 07-Christmas Love Song
DR11      -5.43 dB   -24.48 dB      0:50 08-The First Noδl
DR15      -0.62 dB   -23.97 dB      2:46 09-Winter Wonderland
DR12      -6.16 dB   -27.85 dB      3:09 10-Christmas Time Is Here
DR12      -0.71 dB   -23.43 dB      3:52 11-Christmas Mem'ries
DR11      -6.77 dB   -27.13 dB      1:03 12-Rudolph The Red Nosed Reindeer
DR12      -6.30 dB   -26.15 dB      4:33 13-The Spirit Of Christmas
DR14      -1.61 dB   -24.31 dB      2:40 14-Santa Claus Is Coming To Town / Hey Kris Kringle
DR12      -8.43 dB   -27.19 dB      3:24 15-Count Your Blessings (Instead Of Sheep)
DR12      -8.98 dB   -27.22 dB      0:59 16-O Little Town Of Bethlehem
DR14      -1.94 dB   -24.33 dB      2:45 17-The Christmas Waltz
DR13      -3.10 dB   -24.71 dB      3:36 18-White Christmas
DR10      -8.08 dB   -26.51 dB      1:18 19-Silent Night
DR11      -8.81 dB   -28.03 dB      2:13 20-Sleep Well, Little Children
DR14      -7.90 dB   -30.58 dB      1:29 21-Don't Wait Till The Night Before Christmas
--------------------------------------------------------------------------------

Number of tracks:  21
Official DR value: DR12

Samplerate:        88200 Hz
Channels:          6
Bits per sample:   24
Bitrate:           5986 kbps
Codec:             FLAC
================================================================================




Create a new paste based on this one


Comments: