[ create a new paste ] login | about

Link: http://codepad.org/7UwCF8l4    [ raw code | fork ]

Plain Text, pasted on Nov 22:
[CUETools log; Date: 11/22/2018 8:29:05 AM; Version: 2.1.5]
[CTDB TOCID: Ei69UrhgEGyE_KUQzQYxLDVHoVA-] found.
Track | CTDB Status
  1   | (260/260) Accurately ripped
  2   | (260/260) Accurately ripped
  3   | (260/260) Accurately ripped
  4   | (260/260) Accurately ripped
  5   | (260/260) Accurately ripped
  6   | (260/260) Accurately ripped
  7   | (260/260) Accurately ripped
  8   | (259/260) Accurately ripped
  9   | (260/260) Accurately ripped
 10   | (260/260) Accurately ripped
 11   | (260/260) Accurately ripped
 12   | (260/260) Accurately ripped
 13   | (259/260) Accurately ripped
 14   | (259/260) Accurately ripped
 15   | (258/260) Accurately ripped
 16   | (259/260) Accurately ripped
 17   | (259/260) Accurately ripped
 18   | (258/260) Accurately ripped
 19   | (258/260) Accurately ripped
 20   | (259/260) Accurately ripped
 21   | (258/260) Accurately ripped
 22   | (253/260) Accurately ripped
[AccurateRip ID: 0028f1a3-02a14a05-140d0416] found.
Track   [  CRC   |   V2   ] Status
 01     [cc9bb210|0d244493] (0+8/8) Accurately ripped
 02     [e715fd1c|e8f7a899] (0+8/8) Accurately ripped
 03     [4e9e26c4|3c4a90a1] (0+8/8) Accurately ripped
 04     [9187faca|488d918a] (0+8/8) Accurately ripped
 05     [28d8ee8f|30e78cac] (0+8/8) Accurately ripped
 06     [d5813b6e|b24db0bd] (0+8/8) Accurately ripped
 07     [8f1c8341|3b7bd34d] (0+8/8) Accurately ripped
 08     [09f27055|e87f2cfc] (0+8/8) Accurately ripped
 09     [75a48db9|fc4b5191] (0+8/8) Accurately ripped
 10     [42c633dd|f7f4f175] (0+8/8) Accurately ripped
 11     [e1cf735a|c2326c4d] (0+8/8) Accurately ripped
 12     [ff2f774f|bf2b0317] (0+8/8) Accurately ripped
 13     [cf7752e1|de0d8727] (0+8/8) Accurately ripped
 14     [6f2b1ad2|21b22b9b] (0+8/8) Accurately ripped
 15     [2f9921d1|01ff609d] (0+8/8) Accurately ripped
 16     [d73f986c|d604a37a] (0+8/8) Accurately ripped
 17     [02f8ab71|4d51b1b6] (0+8/8) Accurately ripped
 18     [34209cc0|1513ba69] (0+8/8) Accurately ripped
 19     [2defa15e|f2e82409] (0+8/8) Accurately ripped
 20     [20feeaed|26985a59] (0+8/8) Accurately ripped
 21     [9199de1b|98ca8e61] (0+8/8) Accurately ripped
 22     [c047b2ba|54654117] (0+8/8) Accurately ripped

Track Peak [ CRC32  ] [W/O NULL] [  LOG   ]
 --   98.4 [6FC1C6EE] [1B53875A]   CRC32   
 01   98.4 [4DEA3B87] [73167825]           
 02   83.3 [4682CF99] [5399BF6C]           
 03   72.3 [B59F1CC9] [D875FE7B]           
 04   92.1 [EA509321] [8208045A]           
 05   96.2 [DF926724] [A93DBA88]           
 06   97.7 [8EF22E23] [0481B833]           
 07   92.4 [FB1B715F] [66A718A7]           
 08   85.1 [2DBE4FBD] [348FC86D]           
 09   96.0 [AD01C918] [D3D3A62B]           
 10   97.7 [7CEF5F10] [9C0CD7D4]           
 11   92.2 [904D3B22] [8F6EDD22]           
 12   87.0 [0BEADFF2] [4BF84D8B]           
 13   93.2 [9BF572D6] [FF319B50]           
 14   86.5 [A93BEFE0] [B937F832]           
 15   93.5 [DDBB7F25] [52B0E9DD]           
 16   87.0 [2D8E9B73] [2F982DE1]           
 17   94.0 [52F0CD66] [B1F60FAB]           
 18   88.9 [5376FFA8] [90742FE3]           
 19   86.1 [EAB23039] [F1388D88]           
 20   77.8 [915261B1] [E9D02122]           
 21   76.5 [25DA70F2] [400C6301]           
 22   59.7 [CED0C371] [AFDD8C34]           



Create a new paste based on this one


Comments: