[ create a new paste ] login | about

Link: http://codepad.org/7XXLjEJN    [ raw code | fork ]

Plain Text, pasted on Jan 9:
Exact Audio Copy V1.0 beta 3 from 29. August 2011

EAC extraction logfile from 15. May 2013, 21:00

Doobie Brothers / Toulouse Street

Used drive  : PLEXTOR BD-R  PX-B950SA   Adapter: 6  ID: 0

Read mode               : Secure
Utilize accurate stream : Yes
Defeat audio cache      : Yes
Make use of C2 pointers : No

Read offset correction                      : 6
Overread into Lead-In and Lead-Out          : No
Fill up missing offset samples with silence : Yes
Delete leading and trailing silent blocks   : No
Null samples used in CRC calculations       : Yes
Used interface                              : Native Win32 interface for Win NT & 2000

Used output format : Internal WAV Routines
Sample format      : 44.100 Hz; 16 Bit; Stereo


TOC of the extracted CD

     Track |   Start  |  Length  | Start sector | End sector 
    ---------------------------------------------------------
        1  |  0:00.00 |  4:48.62 |         0    |    21661   
        2  |  4:48.62 |  3:23.55 |     21662    |    36941   
        3  |  8:12.42 |  2:30.68 |     36942    |    48259   
        4  | 10:43.35 |  3:21.40 |     48260    |    63374   
        5  | 14:05.00 |  3:42.73 |     63375    |    80097   
        6  | 17:47.73 |  2:44.40 |     80098    |    92437   
        7  | 20:32.38 |  4:35.60 |     92438    |   113122   
        8  | 25:08.23 |  2:31.65 |    113123    |   124512   
        9  | 27:40.13 |  6:45.02 |    124513    |   154889   
       10  | 34:25.15 |  1:36.22 |    154890    |   162111   


Range status and errors

Selected range

     Filename C:\Doobie Brothers\2013 Original Album Series (5CD Box Set Rhino Records)\1972 Toulouse Street\Doobie Brothers - Toulouse Street.wav

     Peak level 100.0 %
     Extraction speed 6.9 X
     Range quality 100.0 %
     Test CRC 67687200
     Copy CRC 67687200
     Copy OK

No errors occurred

 
AccurateRip summary
 
Track  1  cannot be verified as accurate (confidence 5)  [6F0E87D9], AccurateRip returned [AED14157]  (AR v2)
Track  2  cannot be verified as accurate (confidence 5)  [1B18D692], AccurateRip returned [92B279E0]  (AR v2)
Track  3  cannot be verified as accurate (confidence 5)  [DEFD0D4E], AccurateRip returned [D71F8321]  (AR v2)
Track  4  cannot be verified as accurate (confidence 5)  [DBDA0E8E], AccurateRip returned [B89685A3]  (AR v2)
Track  5  cannot be verified as accurate (confidence 5)  [18441DB9], AccurateRip returned [FFF60B47]  (AR v2)
Track  6  cannot be verified as accurate (confidence 5)  [8124EB8A], AccurateRip returned [B2F7C075]  (AR v2)
Track  7  cannot be verified as accurate (confidence 5)  [CACA0EE6], AccurateRip returned [5F981A49]  (AR v2)
Track  8  cannot be verified as accurate (confidence 5)  [EAE55F40], AccurateRip returned [763DE0FD]  (AR v2)
Track  9  cannot be verified as accurate (confidence 5)  [D47E5C3B], AccurateRip returned [25F8E32E]  (AR v2)
Track 10  cannot be verified as accurate (confidence 5)  [5BF49401], AccurateRip returned [134EB7BB]  (AR v2)
 
No tracks could be verified as accurate
You may have a different pressing from the one(s) in the database

End of status report

==== Log checksum 56048ED1FF13F7F0C5BA000F23F64E8A61F7BF75FE05713484294C8D3A72CAAF ====



Create a new paste based on this one


Comments: