[ create a new paste ] login | about

Link: http://codepad.org/7YamBPyG    [ raw code | fork ]

Plain Text, pasted on Dec 20:
foobar2000 1.6 / Dynamic Range Meter 1.1.1
log date: 2020-12-20 04:57:42

--------------------------------------------------------------------------------
Analyzed: Charlotte Church / Dream a Dream (North American Version)
--------------------------------------------------------------------------------

DR         Peak         RMS     Duration Track
--------------------------------------------------------------------------------
DR8       -1.21 dB   -10.90 dB      3:56 01-Dream A Dream
DR6       -0.01 dB    -9.38 dB      3:22 02-O Come, All Ye Faithful
DR7       -0.53 dB   -11.54 dB      2:57 03-The Little Drummer Boy
DR7       -0.04 dB   -11.48 dB      3:31 04-Mary's Boy Child
DR6       -0.52 dB    -9.25 dB      2:18 05-Ding Dong! Merrily On High
DR7       -0.30 dB    -9.88 dB      3:04 06-Winter Wonderland
DR9       -1.43 dB   -13.83 dB      3:30 07-The Christmas Song (Chestnuts Roasting On An Open Fire)
DR6       -0.43 dB    -8.67 dB      3:17 08-Hark! The Herald Angels Sing
DR7       -0.59 dB   -10.27 dB      2:32 09-The Coventry Carol - Lully Lullay
DR6       -0.53 dB    -9.20 dB      2:13 10-Joy To The World
DR7       -0.73 dB   -10.80 dB      2:30 11-When A Child Is Born
DR7       -0.56 dB   -11.27 dB      2:47 12-What Child Is This - Greensleeves
DR8       -0.55 dB   -12.77 dB      2:00 13-God Rest Ye Merry, Gentlemen
DR7       -0.51 dB   -11.12 dB      3:37 14-Draw Tua Bethlehem - Far Over Bethlehem
DR7       -0.86 dB   -12.39 dB      2:50 15-Ave Maria
DR9       -2.69 dB   -15.19 dB      2:43 16-Gabriel's Message
DR6       -0.53 dB    -9.19 dB      4:22 17-O Holy Night
DR9       -1.87 dB   -14.22 dB      2:33 18-Lo! How A Rose E'er Blooming
DR7       -0.03 dB   -10.47 dB      3:47 19-Silent Night
--------------------------------------------------------------------------------

Number of tracks:  19
Official DR value: DR7

Samplerate:        88200 Hz
Channels:          2
Bits per sample:   24
Bitrate:           2616 kbps
Codec:             FLAC
================================================================================




Create a new paste based on this one


Comments: