[ create a new paste ] login | about

Link: http://codepad.org/7ZUWjVAD    [ raw code | fork ]

Plain Text, pasted on Dec 15:
Exact Audio Copy V1.0 beta 3 from 29. August 2011

EAC extraction logfile from 25. January 2012, 17:07

Hot Chocolate / You Sexy Thing - The Best Of Hot Chocolate

Used drive  : HL-DT-STDVD-RAM GSA-H20N   Adapter: 3  ID: 0

Read mode               : Secure
Utilize accurate stream : Yes
Defeat audio cache      : Yes
Make use of C2 pointers : No

Read offset correction                      : 102
Overread into Lead-In and Lead-Out          : No
Fill up missing offset samples with silence : Yes
Delete leading and trailing silent blocks   : No
Null samples used in CRC calculations       : Yes
Used interface                              : Installed external ASPI interface
Gap handling                                : Appended to previous track

Used output format : Internal WAV Routines
Sample format      : 44.100 Hz; 16 Bit; Stereo


TOC of the extracted CD

     Track |   Start  |  Length  | Start sector | End sector 
    ---------------------------------------------------------
        1  |  0:00.00 |  4:03.18 |         0    |    18242   
        2  |  4:03.18 |  3:18.34 |     18243    |    33126   
        3  |  7:21.52 |  3:46.27 |     33127    |    50103   
        4  | 11:08.04 |  3:59.29 |     50104    |    68057   
        5  | 15:07.33 |  3:58.28 |     68058    |    85935   
        6  | 19:05.61 |  4:12.67 |     85936    |   104902   
        7  | 23:18.53 |  4:27.71 |    104903    |   124998   
        8  | 27:46.49 |  3:42.15 |    124999    |   141663   
        9  | 31:28.64 |  3:11.45 |    141664    |   156033   
       10  | 34:40.34 |  4:02.45 |    156034    |   174228   
       11  | 38:43.04 |  3:07.48 |    174229    |   188301   
       12  | 41:50.52 |  3:44.52 |    188302    |   205153   
       13  | 45:35.29 |  3:39.16 |    205154    |   221594   
       14  | 49:14.45 |  4:30.72 |    221595    |   241916   
       15  | 53:45.42 |  3:53.63 |    241917    |   259454   
       16  | 57:39.30 |  4:18.72 |    259455    |   278876   
       17  | 61:58.27 |  3:59.64 |    278877    |   296865   
       18  | 65:58.16 |  3:51.60 |    296866    |   314250   
       19  | 69:50.01 |  5:46.24 |    314251    |   340224   


Track  1

     Filename C:\rips\Hot Chocolate\You Sexy Thing - The Best Of Hot Chocolate\01 - It Started With A Kiss.wav

     Pre-gap length  0:00:02.00

     Peak level 97.1 %
     Extraction speed 1.7 X
     Track quality 100.0 %
     Test CRC 9E2C9EAA
     Copy CRC 9E2C9EAA
     Track not present in AccurateRip database
     Copy OK

Track  2

     Filename C:\rips\Hot Chocolate\You Sexy Thing - The Best Of Hot Chocolate\02 - Girl Crazy.wav

     Pre-gap length  0:00:00.21

     Peak level 99.9 %
     Extraction speed 1.8 X
     Track quality 100.0 %
     Test CRC 08EAAB62
     Copy CRC 08EAAB62
     Track not present in AccurateRip database
     Copy OK

Track  3

     Filename C:\rips\Hot Chocolate\You Sexy Thing - The Best Of Hot Chocolate\03 - What Kinda Boy You Looking For (Girl).wav

     Pre-gap length  0:00:00.23

     Peak level 100.0 %
     Extraction speed 2.0 X
     Track quality 100.0 %
     Test CRC 17854BD2
     Copy CRC 17854BD2
     Track not present in AccurateRip database
     Copy OK

Track  4

     Filename C:\rips\Hot Chocolate\You Sexy Thing - The Best Of Hot Chocolate\04 - Chances.wav

     Pre-gap length  0:00:01.00

     Peak level 99.6 %
     Extraction speed 1.9 X
     Track quality 99.9 %
     Test CRC E5870A64
     Copy CRC E5870A64
     Track not present in AccurateRip database
     Copy OK

Track  5

     Filename C:\rips\Hot Chocolate\You Sexy Thing - The Best Of Hot Chocolate\05 - Love Me To Sleep.wav

     Pre-gap length  0:00:00.21

     Peak level 99.9 %
     Extraction speed 2.0 X
     Track quality 99.9 %
     Test CRC 24508DA0
     Copy CRC 24508DA0
     Track not present in AccurateRip database
     Copy OK

Track  6

     Filename C:\rips\Hot Chocolate\You Sexy Thing - The Best Of Hot Chocolate\06 - Are You Getting Enough Of What Makes You Happy.wav

     Pre-gap length  0:00:01.00

     Peak level 100.0 %
     Extraction speed 2.4 X
     Track quality 100.0 %
     Test CRC D271C478
     Copy CRC D271C478
     Track not present in AccurateRip database
     Copy OK

Track  7

     Filename C:\rips\Hot Chocolate\You Sexy Thing - The Best Of Hot Chocolate\07 - You'll Never Be So Wrong.wav

     Pre-gap length  0:00:01.00

     Peak level 95.5 %
     Extraction speed 2.5 X
     Track quality 100.0 %
     Test CRC 3806EA49
     Copy CRC 3806EA49
     Track not present in AccurateRip database
     Copy OK

Track  8

     Filename C:\rips\Hot Chocolate\You Sexy Thing - The Best Of Hot Chocolate\08 - I Gave You My Heart (Didn't I).wav

     Pre-gap length  0:00:01.00

     Peak level 99.9 %
     Extraction speed 2.6 X
     Track quality 100.0 %
     Test CRC D444EFFB
     Copy CRC D444EFFB
     Track not present in AccurateRip database
     Copy OK

Track  9

     Filename C:\rips\Hot Chocolate\You Sexy Thing - The Best Of Hot Chocolate\09 - Tears On The Telephone.wav

     Pre-gap length  0:00:00.12

     Peak level 99.9 %
     Extraction speed 2.6 X
     Track quality 100.0 %
     Test CRC 18C84D29
     Copy CRC 18C84D29
     Track not present in AccurateRip database
     Copy OK

Track 10

     Filename C:\rips\Hot Chocolate\You Sexy Thing - The Best Of Hot Chocolate\10 - Emotion Explosion.wav

     Pre-gap length  0:00:00.62

     Peak level 99.7 %
     Extraction speed 2.8 X
     Track quality 100.0 %
     Test CRC 6C06D286
     Copy CRC 6C06D286
     Track not present in AccurateRip database
     Copy OK

Track 11

     Filename C:\rips\Hot Chocolate\You Sexy Thing - The Best Of Hot Chocolate\11 - You're A Natural High.wav

     Pre-gap length  0:00:01.03

     Peak level 97.7 %
     Extraction speed 2.8 X
     Track quality 100.0 %
     Test CRC 101EB6DD
     Copy CRC 101EB6DD
     Track not present in AccurateRip database
     Copy OK

Track 12

     Filename C:\rips\Hot Chocolate\You Sexy Thing - The Best Of Hot Chocolate\12 - Makin' Music.wav

     Pre-gap length  0:00:01.00

     Peak level 92.2 %
     Extraction speed 2.9 X
     Track quality 100.0 %
     Test CRC 56555401
     Copy CRC 56555401
     Track not present in AccurateRip database
     Copy OK

Track 13

     Filename C:\rips\Hot Chocolate\You Sexy Thing - The Best Of Hot Chocolate\13 - Gotta Give Up Your Love.wav

     Pre-gap length  0:00:00.33

     Peak level 99.9 %
     Extraction speed 2.9 X
     Track quality 100.0 %
     Test CRC 5E07E69F
     Copy CRC 5E07E69F
     Track not present in AccurateRip database
     Copy OK

Track 14

     Filename C:\rips\Hot Chocolate\You Sexy Thing - The Best Of Hot Chocolate\14 - Changing World.wav

     Pre-gap length  0:00:01.00

     Peak level 97.7 %
     Extraction speed 3.2 X
     Track quality 100.0 %
     Test CRC DD7D99AF
     Copy CRC DD7D99AF
     Track not present in AccurateRip database
     Copy OK

Track 15

     Filename C:\rips\Hot Chocolate\You Sexy Thing - The Best Of Hot Chocolate\15 - Mary-Anne.wav

     Pre-gap length  0:00:01.00

     Peak level 99.9 %
     Extraction speed 3.1 X
     Track quality 100.0 %
     Test CRC 7923B85E
     Copy CRC 7923B85E
     Track not present in AccurateRip database
     Copy OK

Track 16

     Filename C:\rips\Hot Chocolate\You Sexy Thing - The Best Of Hot Chocolate\16 - Losing You.wav

     Pre-gap length  0:00:01.00

     Peak level 99.9 %
     Extraction speed 3.0 X
     Track quality 99.9 %
     Test CRC 6F0486BC
     Copy CRC 6F0486BC
     Track not present in AccurateRip database
     Copy OK

Track 17

     Filename C:\rips\Hot Chocolate\You Sexy Thing - The Best Of Hot Chocolate\17 - Blue Night.wav

     Pre-gap length  0:00:00.42

     Peak level 100.0 %
     Extraction speed 3.4 X
     Track quality 100.0 %
     Test CRC AB124F41
     Copy CRC AB124F41
     Track not present in AccurateRip database
     Copy OK

Track 18

     Filename C:\rips\Hot Chocolate\You Sexy Thing - The Best Of Hot Chocolate\18 - Heartache No. 9.wav

     Pre-gap length  0:00:00.48

     Peak level 98.8 %
     Extraction speed 3.5 X
     Track quality 100.0 %
     Test CRC 9718F321
     Copy CRC 9718F321
     Track not present in AccurateRip database
     Copy OK

Track 19

     Filename C:\rips\Hot Chocolate\You Sexy Thing - The Best Of Hot Chocolate\19 - Put Your Love In Me.wav

     Pre-gap length  0:00:01.00

     Peak level 91.2 %
     Extraction speed 3.7 X
     Track quality 100.0 %
     Test CRC 5CC87406
     Copy CRC 5CC87406
     Track not present in AccurateRip database
     Copy OK


None of the tracks are present in the AccurateRip database

No errors occurred

End of status report

==== Log checksum 4834EE3A2C049CB9D09ED5B5352D01307813388AC78EC0F430F64C161840A8B5 ====



Create a new paste based on this one


Comments: