[ create a new paste ] login | about

Link: http://codepad.org/7dc1qigd    [ raw code | fork ]

Plain Text, pasted on Nov 22:
foobar2000 1.3.10 / Dynamic Range Meter 1.1.1
log date: 2016-11-21 15:16:51

--------------------------------------------------------------------------------
Analyzed: King Crimson / Three Of A Perfect Pair DVDA (5.1 Surround 24-48)
--------------------------------------------------------------------------------

DR         Peak         RMS     Duration Track
--------------------------------------------------------------------------------
DR14      -0.75 dB   -16.84 dB      4:21 01-Three Of A Perfect Pair
DR14      -0.78 dB   -17.77 dB      3:59 02-Model Man
DR13      -0.55 dB   -15.87 dB      5:36 03-Sleepless
DR14      -0.75 dB   -17.88 dB      3:08 04-Man With An Open Heart
DR13      -1.17 dB   -20.09 dB      4:47 05-Nuages (That Which Passes, Passes Like Clouds)
DR16      -0.68 dB   -21.29 dB      7:05 06-Industry
DR13      -0.80 dB   -19.36 dB      3:16 07-Dig Me
DR12      -0.80 dB   -17.43 dB      3:29 08-No Warning
DR14      -0.77 dB   -18.39 dB      6:03 09-Larks' Tongues In Aspic Part III
DR7       -5.66 dB   -22.78 dB      1:41 10-The King Crimson Barber Shop / Bonus
DR12      -3.31 dB   -22.89 dB      3:23 11-Robert's Ballad / Bonus
--------------------------------------------------------------------------------

Number of tracks:  11
Official DR value: DR13

Samplerate:        48000 Hz
Channels:          6
Bits per sample:   24
Bitrate:           3373 kbps
Codec:             FLAC
================================================================================




foobar2000 1.3.10 / Dynamic Range Meter 1.1.1
log date: 2016-11-21 15:30:34

--------------------------------------------------------------------------------
Analyzed: King Crimson / Three Of A Perfect Pair DVDA (2016 Mix Stereo 24-48)
--------------------------------------------------------------------------------

DR         Peak         RMS     Duration Track
--------------------------------------------------------------------------------
DR11      -0.64 dB   -12.48 dB      4:21 01-Three Of A Perfect Pair
DR8       -0.63 dB   -11.55 dB      3:59 02-Model Man
DR10      -0.20 dB   -11.35 dB      5:36 03-Sleepless
DR11      -0.69 dB   -13.28 dB      3:08 04-Man With An Open Heart
DR13      -0.78 dB   -15.39 dB      4:47 05-Nuages (That Which Passes, Passes Like Clouds)
DR12      -0.82 dB   -15.22 dB      7:05 06-Industry
DR11      -0.53 dB   -14.93 dB      3:16 07-Dig Me
DR10      -0.71 dB   -13.26 dB      3:29 08-No Warning
DR11      -0.56 dB   -13.42 dB      6:03 09-Larks' Tongues In Aspic Part III
DR12      -2.87 dB   -17.51 dB      1:41 10-The King Crimson Barber Shop / Bonus
DR11      -3.78 dB   -17.93 dB      3:23 11-Robert's Ballad / Bonus
DR11      -3.56 dB   -17.02 dB      2:40 12-Shidare Zakura / Bonus
DR11      -1.49 dB   -15.39 dB      3:15 13-Industrial Zone A / Bonus
DR12      -0.68 dB   -14.76 dB      5:35 14-Industrial Zone B / Bonus
DR11      -0.72 dB   -14.41 dB     15:51 15-Industrial Zone C / Bonus
--------------------------------------------------------------------------------

Number of tracks:  15
Official DR value: DR11

Samplerate:        48000 Hz
Channels:          2
Bits per sample:   24
Bitrate:           1524 kbps
Codec:             FLAC
================================================================================




foobar2000 1.3.10 / Dynamic Range Meter 1.1.1
log date: 2016-11-21 20:41:17

--------------------------------------------------------------------------------
Analyzed: King Crimson / Three Of A Perfect Pair DVDA (Original Mix Stereo 24-48)
--------------------------------------------------------------------------------

DR         Peak         RMS     Duration Track
--------------------------------------------------------------------------------
DR10      -0.65 dB   -12.14 dB      4:12 01-Three Of A Perfect Pair
DR9       -0.58 dB   -12.19 dB      3:49 02-Model Man
DR10      -0.39 dB   -11.94 dB      5:23 03-Sleepless
DR13      -0.32 dB   -14.85 dB      3:06 04-Man With An Open Heart
DR12      -0.68 dB   -15.73 dB      4:47 05-Nuages (That Which Passes, Passes Like Clouds)
DR15      -0.39 dB   -18.10 dB      7:05 06-Industry
DR13      -0.32 dB   -15.70 dB      3:17 07-Dig Me
DR12      -0.33 dB   -15.77 dB      3:28 08-No Warning
DR12      -0.32 dB   -14.36 dB      6:05 09-Larks' Tongues In Aspic Part III
DR12      -0.32 dB   -14.61 dB      1:38 10-The King Crimson Barber Shop / Bonus
DR11      -0.31 dB   -14.60 dB      1:43 11-Robert's Ballad / Bonus
DR11      -0.31 dB   -14.05 dB      4:33 12-Shidare Zakura / Bonus
DR10      -0.26 dB   -11.51 dB      7:27 13-Industrial Zone A / Bonus
DR10      -0.26 dB   -12.17 dB      5:24 14-Industrial Zone B / Bonus
DR9       -0.20 dB   -11.78 dB      6:20 15-Industrial Zone C / Bonus
--------------------------------------------------------------------------------

Number of tracks:  15
Official DR value: DR11

Samplerate:        48000 Hz
Channels:          2
Bits per sample:   24
Bitrate:           1675 kbps
Codec:             FLAC
================================================================================




Create a new paste based on this one


Comments: