[ create a new paste ] login | about

Link: http://codepad.org/7esgIsXw    [ raw code | fork ]

Plain Text, pasted on May 21:
foobar2000 1.3.15 / Dynamic Range Meter 1.1.1
log date: 2017-04-18 21:38:26

--------------------------------------------------------------------------------
Analyzed: Grand Funk / Shinin' On (2017 AF Hybrid SACD)
--------------------------------------------------------------------------------

DR         Peak         RMS     Duration Track
--------------------------------------------------------------------------------
DR10      -0.86 dB   -13.35 dB      5:58 01-Shinin' On
DR11      -1.00 dB   -14.20 dB      3:56 02-To Get Back In
DR10      -1.78 dB   -13.68 dB      2:46 03-The Loco-Motion
DR11      -3.21 dB   -16.45 dB      5:31 04-Carry Me Through
DR9       -1.81 dB   -13.34 dB      3:38 05-Please Me
DR10      -1.77 dB   -15.92 dB      3:08 06-Mr Pretty Boy
DR11      -1.93 dB   -14.42 dB      3:58 07-Gettin' Over You
DR10      -0.78 dB   -13.77 dB      5:00 08-Little Johnny Hooker
--------------------------------------------------------------------------------

Number of tracks:  8
Official DR value: DR10

Samplerate:        88200 Hz
Channels:          2
Bits per sample:   24
Bitrate:           2808 kbps
Codec:             FLAC
================================================================================




Create a new paste based on this one


Comments: