[ create a new paste ] login | about

Link: http://codepad.org/7ncTC2MK    [ raw code | fork ]

Plain Text, pasted on Nov 14:
[CUETools log; Date: 11/14/2016 9:50:43 AM; Version: 2.1.5]
[CTDB TOCID: iPuUTu5W2Tas1oFBL0sgra6URz0-] found.
Track | CTDB Status
  1   | (35/35) Accurately ripped
  2   | (35/35) Accurately ripped
  3   | (35/35) Accurately ripped
  4   | (35/35) Accurately ripped
  5   | (35/35) Accurately ripped
  6   | (35/35) Accurately ripped
  7   | (35/35) Accurately ripped
  8   | (35/35) Accurately ripped
  9   | (35/35) Accurately ripped
[AccurateRip ID: 000cd46d-005f6086-7e096c09] found.
Track   [  CRC   |   V2   ] Status
 01     [3c71efce|0369c74a] (11+10/49) Accurately ripped
 02     [0c8b2aa4|fa3b4f88] (11+10/49) Accurately ripped
 03     [ecf3202e|c82e19f5] (11+10/49) Accurately ripped
 04     [24239381|42a924c3] (11+11/50) Accurately ripped
 05     [1d67691c|2d93498f] (11+10/50) Accurately ripped
 06     [5e13f412|c8b2ae6a] (11+10/50) Accurately ripped
 07     [ed3409ac|2cec4d19] (11+10/49) Accurately ripped
 08     [0aacceba|6969d9ca] (11+10/49) Accurately ripped
 09     [678ffb61|3a9ae122] (11+10/49) Accurately ripped
Offsetted by 6:
 01     [c0689568] (02/49) Accurately ripped
 02     [24b90a81] (02/49) Accurately ripped
 03     [9083e8c6] (02/49) Accurately ripped
 04     [c51c8be2] (02/50) Accurately ripped
 05     [189f3cf6] (02/50) Accurately ripped
 06     [3fdf00b1] (02/50) Accurately ripped
 07     [773c463a] (02/49) Accurately ripped
 08     [07a4ec4c] (02/49) Accurately ripped
 09     [6228b74c] (02/49) Accurately ripped
Offsetted by 102:
 01     [5e7386cc] (08/49) Accurately ripped
 02     [ea2de8f6] (08/49) Accurately ripped
 03     [bf75ce5e] (08/49) Accurately ripped
 04     [3825c3d5] (08/50) Accurately ripped
 05     [60af5da6] (09/50) Accurately ripped
 06     [c154c8b9] (09/50) Accurately ripped
 07     [64b6e505] (08/49) Accurately ripped
 08     [855176ef] (08/49) Accurately ripped
 09     [76bd6f5a] (08/49) Accurately ripped
Offsetted by 30:
 01     [7392c12d] (00/49) No match (V2 was not tested)
 02     [61d5dcc7] (00/49) No match (V2 was not tested)
 03     [83d2a3b1] (00/49) No match (V2 was not tested)
 04     [20f62fc9] (00/50) No match (V2 was not tested)
 05     [d3888669] (00/50) No match (V2 was not tested)
 06     [d4535deb] (00/50) No match (V2 was not tested)
 07     [f97de4b6] (00/49) No match (V2 was not tested)
 08     [be73efa0] (00/49) No match (V2 was not tested)
 09     [03d2f15e] (00/49) No match (V2 was not tested)

Track Peak [ CRC32  ] [W/O NULL] 
 --   90.9 [6441D6E0] [BBD79CCF]           
 01   66.4 [F1E04C12] [336DE8F0]           
 02   75.2 [068C2DA6] [8FA853BC]           
 03   63.8 [75EFD544] [A745F123]           
 04   61.9 [F0956099] [AB0AA486]           
 05   90.9 [67F557AD] [06D80E9E]           
 06   81.1 [77285510] [B8279664]           
 07   77.5 [825BC65E] [BB1A95E0]           
 08   80.2 [0326EB43] [09BEDC72]           
 09   78.8 [E1098F52] [ECD38C7B]           



Create a new paste based on this one


Comments: