[ create a new paste ] login | about

Link: http://codepad.org/7qUDIpn3    [ raw code | fork ]

Plain Text, pasted on Oct 29:
foobar2000 1.3.17 / Dynamic Range Meter 1.1.1
log date: 2018-10-29 10:36:50

--------------------------------------------------------------------------------
Analyzed: Charles Aznavour / ENTRE DEUX REVES
--------------------------------------------------------------------------------

DR         Peak         RMS     Duration Track
--------------------------------------------------------------------------------
DR10      -0.76 dB   -15.46 dB      3:36 01-Emmenez moi
DR11      -0.52 dB   -15.41 dB      2:56 02-Eteins la lumiere
DR10      -0.01 dB   -15.64 dB      3:36 03-Adieu
DR10      -0.27 dB   -13.69 dB      2:26 04-Un jour
DR10      -0.24 dB   -15.29 dB      2:20 05-Les vertes annees
DR10      -0.75 dB   -14.58 dB      2:39 06-Je reviens fanny
DR10      -0.23 dB   -15.83 dB      2:16 07-Yerushalaim
DR10      -0.57 dB   -15.50 dB      2:37 08-Entre nous
DR10      -0.64 dB   -14.66 dB      2:14 09-J'aimerais
DR10      -0.26 dB   -14.29 dB      2:39 10-Il te faudra bien revenir
DR10      -0.26 dB   -14.14 dB      2:58 11-Au voleur
DR10      -1.03 dB   -15.39 dB      2:39 12-Caroline
DR10      -1.00 dB   -17.15 dB      2:52 13-Ma main a besoin de ta main
DR11      -0.49 dB   -16.10 dB      2:48 14-J'ai bu
DR11      -0.71 dB   -16.28 dB      5:11 15-Quand tu viens chez moi mon coeur
DR11      -0.84 dB   -15.75 dB      2:36 16-Si j'avais un piano
DR10      -0.64 dB   -14.82 dB      4:54 17-Le cabotin
DR9       -0.05 dB   -14.33 dB      2:56 18-Comme une maladie
--------------------------------------------------------------------------------

Number of tracks:  18
Official DR value: DR10

Samplerate:        88200 Hz
Channels:          6
Bits per sample:   24
Bitrate:           7682 kbps
Codec:             FLAC
================================================================================




Create a new paste based on this one


Comments: