[ create a new paste ] login | about

Link: http://codepad.org/7ukaaSQR    [ raw code | fork ]

Plain Text, pasted on Jul 23:
foobar2000 1.4.4 / Dynamic Range Meter 1.1.1
log date: 2019-07-22 19:09:40

--------------------------------------------------------------------------------
Analyzed: Hugo Montengro / Godfather Good Bad Ugly
--------------------------------------------------------------------------------

DR         Peak         RMS     Duration Track
--------------------------------------------------------------------------------
DR13      -3.19 dB   -20.93 dB      4:32 01-Medley Baby Elephant Walk Moon River
DR14      -1.31 dB   -21.90 dB      3:36 02-Norwegian Wood  
DR13      -1.97 dB   -19.04 dB      3:30 03-Me and My Arrow  
DR11      -4.67 dB   -19.05 dB      4:19 04-Air on the G String 
DR10      -2.02 dB   -17.18 dB      3:39 05-Quadimodo 
DR13      -1.29 dB   -16.83 dB      3:13 06-I Feel the Earth Move  
DR11      -2.43 dB   -17.86 dB      3:33 07-The Godfather Waltz  
DR10      -3.28 dB   -16.63 dB      3:39 08-Love Theme from The Godfather  
DR12      -3.30 dB   -20.04 dB      3:03 09-Pavane 
DR13      -2.56 dB   -18.90 dB      3:09 10-Stutterology 
DR13      -0.93 dB   -17.22 dB      2:46 11-The Good the Bad and the Ugly 
DR12      -1.82 dB   -17.04 dB      2:28 12-March with Hope 
DR11      -4.27 dB   -18.61 dB      3:06 13-The Story of a Soldier  
DR12      -1.03 dB   -17.23 dB      2:39 14-The Ecstasy of Gold  
DR11      -1.66 dB   -17.63 dB      2:10 15-A Fistful of Dollars  
DR12      -3.03 dB   -17.88 dB      2:13 16-Hang em High 
DR12      -1.30 dB   -16.73 dB      2:46 17-For a Few Dollars More  
DR12      -2.28 dB   -17.82 dB      3:18 18-Aces High  
DR12      -1.34 dB   -16.85 dB      2:19 19-The Vice of Killing  
DR12      -1.69 dB   -17.85 dB      2:22 20-Sixty Seconds to What? 
DR14      -0.87 dB   -16.78 dB      2:14 21-Square Dance  
DR12      -1.82 dB   -16.78 dB      2:17 22-Titoli A Fistful of Dollars  
--------------------------------------------------------------------------------

Number of tracks:  22
Official DR value: DR12

Samplerate:        88200 Hz
Channels:          2
Bits per sample:   24
Bitrate:           2662 kbps
Codec:             FLAC
================================================================================




Create a new paste based on this one


Comments: