[ create a new paste ] login | about

Link: http://codepad.org/7wnzxN2N    [ raw code | fork ]

Plain Text, pasted on Jun 20:
foobar2000 1.3.17 / Dynamic Range Meter 1.1.1
log date: 2018-06-20 11:42:51

--------------------------------------------------------------------------------
Analyzed: The Moody Blues / Every Good Boy Deserves Favour  (MFSL 1-232)
--------------------------------------------------------------------------------

DR         Peak         RMS     Duration Track
--------------------------------------------------------------------------------
DR11      -2.78 dB   -20.29 dB      4:40 01-Procession
DR10      -1.79 dB   -13.80 dB      2:57 02-The Story in Your Eyes
DR9       -3.45 dB   -16.03 dB      3:34 03-Our Guessing Game
DR10      -3.70 dB   -15.99 dB      3:42 04-Emily's Song
DR11      -0.25 dB   -14.13 dB      4:37 05-After You Came
DR10      -1.86 dB   -14.67 dB      5:42 06-One More Time to Live
DR10      -1.61 dB   -14.47 dB      4:24 07-Nice to Be Here
DR10      -1.58 dB   -15.78 dB      4:15 08-You Can Never Go Home
DR10      -0.71 dB   -15.70 dB      6:21 09-My Song
--------------------------------------------------------------------------------

Number of tracks:  9
Official DR value: DR10

Samplerate:        44100 Hz
Channels:          2
Bits per sample:   16
Bitrate:           696 kbps
Codec:             FLAC
================================================================================




Create a new paste based on this one


Comments: