[ create a new paste ] login | about

Link: http://codepad.org/7xdTjTKc    [ raw code | fork ]

Plain Text, pasted on Apr 20:
foobar2000 1.3 / Dynamic Range Meter 1.1.1
log date: 2014-05-29 12:53:03

--------------------------------------------------------------------------------
Analyzed: Isao Tomita / Moussorgsky-Tomita: Pictures At An Exhibition - Ultimate Edition (2014 Hybrid SACD)
--------------------------------------------------------------------------------

DR         Peak         RMS     Duration Track
--------------------------------------------------------------------------------
DR9       -0.31 dB   -22.38 dB      4:45 01-Pictures At An Exhibition: Promenade; Gnomes
DR8       -2.84 dB   -22.60 dB      6:22 02-Pictures At An Exhibition: Promenade; The Old Castle
DR8       -8.49 dB   -25.59 dB      1:27 03-Pictures At An Exhibition: Promenade; Tuileries
DR8       -3.18 dB   -21.79 dB      3:19 04-Pictures At An Exhibition: Bydlo
DR9       -0.21 dB   -21.51 dB      2:07 05-Pictures At An Exhibition: Promenade; Ballet Of The Chicks In Their Shell
DR9       -0.34 dB   -21.73 dB      3:06 06-Pictures At An Exhibition: Samuel Goldenberg And Schmuyle
DR8       -0.32 dB   -18.94 dB      1:13 07-Pictures At An Exhibition: The Market Place At Limoges
DR7       -2.96 dB   -19.85 dB      2:37 08-Pictures At An Exhibition: Catacombs
DR7       -5.14 dB   -24.15 dB      2:11 09-Pictures At An Exhibition: Con Mortuis In Lingua Mortua
DR8       -0.31 dB   -18.66 dB      3:42 10-Pictures At An Exhibition: The Hut Of Baba Yaga
DR8       -0.30 dB   -19.05 dB      6:28 11-Pictures At An Exhibition: The Great Gate At Kiev
DR9       -2.80 dB   -24.40 dB      4:34 12-Sheherazade
DR8       -4.76 dB   -24.68 dB      5:20 13-The Sea Named 'Solaris'
--------------------------------------------------------------------------------

Number of tracks:  13
Official DR value: DR8

Samplerate:        88200 Hz
Channels:          6
Bits per sample:   24
Bitrate:           4957 kbps
Codec:             FLAC
================================================================================




Create a new paste based on this one


Comments: