[ create a new paste ] login | about

Link: http://codepad.org/86CqUOl6    [ raw code | fork ]

Plain Text, pasted on May 24:
foobar2000 1.3.15 / Dynamic Range Meter 1.1.1
log date: 2017-05-23 18:05:19

--------------------------------------------------------------------------------
Analyzed: Isaac Hayes / Hot Buttered Soul
--------------------------------------------------------------------------------

DR         Peak         RMS     Duration Track
--------------------------------------------------------------------------------
DR13      -3.63 dB   -20.54 dB     12:04 01-Walk On By
DR14      -3.13 dB   -19.46 dB      9:37 02-Hyperbolicsyllabicsesquedalymistic
DR13      -3.23 dB   -21.44 dB      5:09 03-One Woman
DR14      -3.00 dB   -22.57 dB     18:47 04-By The Time I Get To Phoenix
--------------------------------------------------------------------------------

Number of tracks:  4
Official DR value: DR13

Samplerate:        2822400 Hz / PCM Samplerate: 88200 Hz
Channels:          2
Bits per sample:   1
Bitrate:           5645 kbps
Codec:             DSD64
================================================================================




Create a new paste based on this one


Comments: