[ create a new paste ] login | about

Link: http://codepad.org/86S8ZfT6    [ raw code | fork ]

Plain Text, pasted on Jan 9:
foobar2000 1.3.10 / Dynamic Range Meter 1.1.1
log date: 2017-01-09 13:16:07

--------------------------------------------------------------------------------
Analyzed: Randy Newman / The Randy Newman Songbook
--------------------------------------------------------------------------------

DR         Peak         RMS     Duration Track
--------------------------------------------------------------------------------
DR12      -0.33 dB   -14.77 dB      2:09 01-Short People
DR12      -1.18 dB   -15.32 dB      1:56 02-Mama Told Me Not to Come
DR12      -0.27 dB   -16.09 dB      3:05 03-Love Story
DR11      -0.05 dB   -13.23 dB      2:31 04-Burn On
DR12      -0.05 dB   -14.08 dB      2:06 05-You've Got a Friend in Me
DR13      -0.05 dB   -15.65 dB      2:33 06-Rollin'
DR14      -0.59 dB   -18.57 dB      2:46 07-Guilty
DR12      -0.05 dB   -14.08 dB      1:48 08-Simon Smith and the Amazing Dancing Bear
DR12      -0.10 dB   -14.74 dB      2:39 09-Davy the Fat Boy
DR10      -0.05 dB   -11.68 dB      2:20 10-Red Bandana
DR13      -0.18 dB   -18.31 dB      2:39 11-Old Man
DR14      -0.48 dB   -21.03 dB      2:33 12-Real Emotional Girl
DR13      -1.08 dB   -17.23 dB      2:27 13-I Love to See You Smile
DR11      -0.16 dB   -14.20 dB      2:34 14-I Love L.A.
DR13      -0.26 dB   -18.70 dB      3:01 15-Bad News from Home
DR14      -1.02 dB   -18.14 dB      2:23 16-I'll Be Home
DR9       -0.10 dB   -13.54 dB      4:53 17-Feels Like Home
DR10      -0.10 dB   -13.04 dB      2:58 18-A Wedding in Cherokee County
DR12       0.00 dB   -18.70 dB      1:02 19-Family Album: Homage to Alfred, Emil and Lionel Newman
DR10      -2.66 dB   -15.26 dB      4:08 20-A Few Words In Defense of Our Country
DR11      -0.10 dB   -14.16 dB      3:12 21-I'm Dreaming
--------------------------------------------------------------------------------

Number of tracks:  21
Official DR value: DR12

Samplerate:        88200 Hz
Channels:          2
Bits per sample:   24
Bitrate:           2294 kbps
Codec:             FLAC
================================================================================




Create a new paste based on this one


Comments: