[ create a new paste ] login | about

Link: http://codepad.org/88m1uWFD    [ raw code | fork ]

Plain Text, pasted on May 14:
foobar2000 1.3.17 / Dynamic Range Meter 1.1.1
log date: 2018-05-14 11:49:22

--------------------------------------------------------------------------------
Analyzed: Pete Townshend / Psychoderelict 
--------------------------------------------------------------------------------

DR         Peak         RMS     Duration Track
--------------------------------------------------------------------------------
DR9        0.00 dB   -10.15 dB      5:08 01-English Boy
DR9        0.00 dB   -11.20 dB      3:31 02-Meher Baba M3
DR9        0.00 dB   -10.89 dB      3:36 03-Let's Get Pretentious
DR10       0.00 dB   -11.66 dB      2:23 04-Meher Baba M4
DR9        0.00 dB   -12.11 dB      3:54 05-Early Morning Dreams
DR8        0.00 dB    -9.73 dB      3:58 06-I Want That Thing
DR11       0.00 dB   -11.77 dB      0:32 07-Dialogue Introduction To Outlive The Dinosaur
DR8        0.00 dB    -9.43 dB      3:25 08-Outlive The Dinosaur
DR11       0.00 dB   -12.56 dB      1:08 09-Flame
DR8        0.00 dB   -11.17 dB      4:25 10-Now And Then
DR9        0.00 dB   -10.73 dB      4:35 11-I Am Afraid
DR7        0.00 dB    -9.09 dB      2:59 12-Don't Try To Make Me Real
DR11       0.00 dB   -14.02 dB      0:34 13-Dialogue Introduction To Predictable
DR9        0.00 dB   -10.87 dB      2:17 14-Predictable
DR8        0.00 dB   -11.11 dB      2:41 15-Flame
DR11       0.00 dB   -13.48 dB      2:36 16-Meher Baba M5
DR8        0.00 dB   -10.04 dB      3:29 17-Fake It
DR13      -0.23 dB   -15.82 dB      0:32 18-Dialogue Introduction To Now And Then
DR9        0.00 dB   -10.80 dB      2:58 19-Now And Then
DR10       0.00 dB   -12.68 dB      1:20 20-Baba O'Riley
DR8        0.00 dB    -9.73 dB      7:05 21-English Boy
--------------------------------------------------------------------------------

Number of tracks:  21
Official DR value: DR9

Samplerate:        44100 Hz
Channels:          2
Bits per sample:   24
Bitrate:           1791 kbps
Codec:             FLAC
================================================================================




Create a new paste based on this one


Comments: