[ create a new paste ] login | about

Link: http://codepad.org/89uHCFxO    [ raw code | fork ]

Plain Text, pasted on Aug 21:
foobar2000 1.3.17 / Dynamic Range Meter 1.1.1
log date: 2018-08-21 09:55:38

--------------------------------------------------------------------------------
Analyzed: R.E.M. / Up
--------------------------------------------------------------------------------

DR         Peak         RMS     Duration Track
--------------------------------------------------------------------------------
DR12      -0.42 dB   -15.31 dB      4:13 01-Airportman
DR7        0.00 dB    -8.92 dB      4:32 02-Lotus
DR8        0.00 dB   -10.05 dB      5:37 03-Suspicion
DR7        0.00 dB    -9.21 dB      5:02 04-Hope
DR8        0.00 dB    -9.82 dB      4:30 06-The Apologist
DR7        0.00 dB   -10.29 dB      4:04 07-Sad Professor
DR8        0.00 dB   -10.65 dB      5:24 08-You're In The Air
DR7        0.00 dB   -10.21 dB      4:34 09-Walk Unafraid
DR11       0.00 dB   -13.94 dB      4:03 10-Why Not Smile
DR8        0.00 dB   -11.07 dB      6:01 12-Diminished
DR10       0.00 dB   -11.74 dB      4:12 13-Parakeet
DR9        0.00 dB   -11.13 dB      5:07 14-Falls To Climb
--------------------------------------------------------------------------------

Number of tracks:  12
Official DR value: DR9

Samplerate:        48000 Hz
Channels:          2
Bits per sample:   24
Bitrate:           1612 kbps
Codec:             FLAC
================================================================================

--------------------------------------------------------------------------------
Analyzed: R.E.M. / Up
--------------------------------------------------------------------------------

DR         Peak         RMS     Duration Track
--------------------------------------------------------------------------------
DR10      -0.60 dB   -12.78 dB      3:35 05-At My Most Beautiful
DR9       -0.10 dB   -12.16 dB      3:40 11-Daysleeper
--------------------------------------------------------------------------------

Number of tracks:  2
Official DR value: DR9

Samplerate:        192000 Hz
Channels:          2
Bits per sample:   24
Bitrate:           4955 kbps
Codec:             FLAC
================================================================================




Create a new paste based on this one


Comments: