[ create a new paste ] login | about

Link: http://codepad.org/8CPY8AdC    [ raw code | fork ]

Plain Text, pasted on Dec 29:
Exact Audio Copy V1.0 beta 3 from 29. August 2011

EAC extraction logfile from 4. July 2013, 20:34

Various / Pure Disco 

Used drive  : ATAPI   iHAS124   B   Adapter: 1  ID: 1

Read mode               : Secure
Utilize accurate stream : Yes
Defeat audio cache      : Yes
Make use of C2 pointers : No

Read offset correction                      : 6
Overread into Lead-In and Lead-Out          : No
Fill up missing offset samples with silence : Yes
Delete leading and trailing silent blocks   : No
Null samples used in CRC calculations       : Yes
Used interface                              : Native Win32 interface for Win NT & 2000

Used output format              : Monkey's Audio Lossless Encoder
Selected bitrate                : Extra High Lossless Compression
Quality                         : High
Add ID3 tag                     : No
Command line compressor         : C:\Program Files\Monkey's Audio\MAC.exe


TOC of the extracted CD

     Track |   Start  |  Length  | Start sector | End sector 
    ---------------------------------------------------------
        1  |  0:00.00 |  3:45.52 |         0    |    16926   
        2  |  3:45.52 |  3:40.35 |     16927    |    33461   
        3  |  7:26.12 |  3:47.35 |     33462    |    50521   
        4  | 11:13.47 |  3:48.63 |     50522    |    67684   
        5  | 15:02.35 |  3:16.72 |     67685    |    82456   
        6  | 18:19.32 |  3:23.70 |     82457    |    97751   
        7  | 21:43.27 |  3:34.30 |     97752    |   113831   
        8  | 25:17.57 |  3:43.30 |    113832    |   130586   
        9  | 29:01.12 |  3:06.48 |    130587    |   144584   
       10  | 32:07.60 |  3:41.40 |    144585    |   161199   
       11  | 35:49.25 |  3:03.05 |    161200    |   174929   
       12  | 38:52.30 |  3:13.40 |    174930    |   189444   
       13  | 42:05.70 |  2:55.07 |    189445    |   202576   
       14  | 45:01.02 |  3:25.48 |    202577    |   217999   
       15  | 48:26.50 |  3:45.55 |    218000    |   234929   
       16  | 52:12.30 |  3:41.10 |    234930    |   251514   
       17  | 55:53.40 |  3:56.20 |    251515    |   269234   
       18  | 59:49.60 |  4:08.17 |    269235    |   287851   
       19  | 63:58.02 |  3:36.20 |    287852    |   304071   
       20  | 67:34.22 |  3:54.73 |    304072    |   321694   
       21  | 71:29.20 |  4:51.05 |    321695    |   343524   


Range status and errors

Selected range

     Filename C:\1\VA - Pure Disco (1996)\Various - Pure Disco.wav

     Peak level 100.0 %
     Extraction speed 8.4 X
     Range quality 100.0 %
     Test CRC CD104C6D
     Copy CRC CD104C6D
     Copy OK

No errors occurred

End of status report

==== Log checksum 2DE26D2B279CBC77136A78307CE8529DCC0B9079D9C47C245CB8EF45132AEE7B ====



Create a new paste based on this one


Comments: