[ create a new paste ] login | about

Link: http://codepad.org/8DZUYtKH    [ raw code | fork ]

Plain Text, pasted on Apr 27:
X Lossless Decoder version 20140504 (147.0)

XLD extraction logfile from 2014-12-06 12:47:29 -0600

Love / Forever Changes (MFSL)

Used drive : HL-DT-ST DVDRW  GS31N (revision TA17)
Media type : Pressed CD

Ripper mode             : XLD Secure Ripper
Disable audio cache     : OK for the drive with a cache less than 1375KiB
Make use of C2 pointers : NO
Read offset correction  : 667
Max retry count         : 100
Gap status              : Analyzed, Appended

TOC of the extracted CD
     Track |   Start  |  Length  | Start sector | End sector 
    ---------------------------------------------------------
        1  | 00:00:00 | 03:18:30 |         0    |    14879   
        2  | 03:18:30 | 03:31:74 |     14880    |    30778   
        3  | 06:50:29 | 03:21:32 |     30779    |    45885   
        4  | 10:11:61 | 03:31:12 |     45886    |    61722   
        5  | 13:42:73 | 03:02:56 |     61723    |    75428   
        6  | 16:45:54 | 04:49:66 |     75429    |    97169   
        7  | 21:35:45 | 03:34:50 |     97170    |   113269   
        8  | 25:10:20 | 05:27:18 |    113270    |   137812   
        9  | 30:37:38 | 03:08:34 |    137813    |   151946   
       10  | 33:45:72 | 02:24:35 |    151947    |   162781   
       11  | 36:10:32 | 06:53:25 |    162782    |   193781   

AccurateRip Summary
    Disc not found in AccurateRip DB.

All Tracks
    Album gain               : -0.29 dB
    Peak                     : 0.954224
    Statistics
        Read error                           : 0
        Jitter error (maybe fixed)           : 0
        Retry sector count                   : 0
        Damaged sector count                 : 0

Track 01
    Filename : /Users/Shared/TORRENTS/Love - 1967 - Forever Changes (MFSL) [FLAC]/01 Alone Again Or.flac
    Pre-gap length : 00:02:00

    Track gain               : -1.65 dB
    Peak                     : 0.954224
    CRC32 hash (test run)    : 6411D9AC
    CRC32 hash               : 6411D9AC
    CRC32 hash (skip zero)   : DB685643
    AccurateRip v1 signature : 78CA0D58
    AccurateRip v2 signature : AEB8B580
        ->Track not present in AccurateRip database.
    Statistics
        Read error                           : 0
        Jitter error (maybe fixed)           : 0
        Retry sector count                   : 0
        Damaged sector count                 : 0

Track 02
    Filename : /Users/Shared/TORRENTS/Love - 1967 - Forever Changes (MFSL) [FLAC]/02 A House Is Not A Motel.flac
    Pre-gap length : 00:02:53

    Track gain               : -1.44 dB
    Peak                     : 0.686646
    CRC32 hash (test run)    : A87AA1B3
    CRC32 hash               : A87AA1B3
    CRC32 hash (skip zero)   : 9B937118
    AccurateRip v1 signature : EDFA72F2
    AccurateRip v2 signature : 8295CCD1
        ->Track not present in AccurateRip database.
    Statistics
        Read error                           : 0
        Jitter error (maybe fixed)           : 0
        Retry sector count                   : 0
        Damaged sector count                 : 0

Track 03
    Filename : /Users/Shared/TORRENTS/Love - 1967 - Forever Changes (MFSL) [FLAC]/03 Andmoreagain.flac
    Pre-gap length : 00:04:30

    Track gain               : 1.13 dB
    Peak                     : 0.809052
    CRC32 hash (test run)    : 85F27DCA
    CRC32 hash               : 85F27DCA
    CRC32 hash (skip zero)   : 457C5C88
    AccurateRip v1 signature : 5D8793B7
    AccurateRip v2 signature : 057A51DB
        ->Track not present in AccurateRip database.
    Statistics
        Read error                           : 0
        Jitter error (maybe fixed)           : 0
        Retry sector count                   : 0
        Damaged sector count                 : 0

Track 04
    Filename : /Users/Shared/TORRENTS/Love - 1967 - Forever Changes (MFSL) [FLAC]/04 The Daily Planet.flac
    Pre-gap length : 00:02:47

    Track gain               : -0.02 dB
    Peak                     : 0.811188
    CRC32 hash (test run)    : CBC9D0F4
    CRC32 hash               : CBC9D0F4
    CRC32 hash (skip zero)   : 00E7EF82
    AccurateRip v1 signature : 11FDE7A2
    AccurateRip v2 signature : 4CF3656F
        ->Track not present in AccurateRip database.
    Statistics
        Read error                           : 0
        Jitter error (maybe fixed)           : 0
        Retry sector count                   : 0
        Damaged sector count                 : 0

Track 05
    Filename : /Users/Shared/TORRENTS/Love - 1967 - Forever Changes (MFSL) [FLAC]/05 Old Man.flac
    Pre-gap length : 00:02:62

    Track gain               : 2.08 dB
    Peak                     : 0.612823
    CRC32 hash (test run)    : 7F0347E1
    CRC32 hash               : 7F0347E1
    CRC32 hash (skip zero)   : 09DBEC61
    AccurateRip v1 signature : E5F8FF65
    AccurateRip v2 signature : A0935B05
        ->Track not present in AccurateRip database.
    Statistics
        Read error                           : 0
        Jitter error (maybe fixed)           : 0
        Retry sector count                   : 0
        Damaged sector count                 : 0

Track 06
    Filename : /Users/Shared/TORRENTS/Love - 1967 - Forever Changes (MFSL) [FLAC]/06 The Red Telephone.flac
    Pre-gap length : 00:03:00

    Track gain               : 1.77 dB
    Peak                     : 0.540680
    CRC32 hash (test run)    : 3660FC7F
    CRC32 hash               : 3660FC7F
    CRC32 hash (skip zero)   : 820B51FC
    AccurateRip v1 signature : 1423DC2B
    AccurateRip v2 signature : ACB488A2
        ->Track not present in AccurateRip database.
    Statistics
        Read error                           : 0
        Jitter error (maybe fixed)           : 0
        Retry sector count                   : 0
        Damaged sector count                 : 0

Track 07
    Filename : /Users/Shared/TORRENTS/Love - 1967 - Forever Changes (MFSL) [FLAC]/07 Maybe The People Would Be The Times Or Between Clark And Hilldale.flac
    Pre-gap length : 00:04:58

    Track gain               : -1.95 dB
    Peak                     : 0.851501
    CRC32 hash (test run)    : 6C5F1F7A
    CRC32 hash               : 6C5F1F7A
    CRC32 hash (skip zero)   : E5A1AB2B
    AccurateRip v1 signature : DDC6C1F8
    AccurateRip v2 signature : BBF2B224
        ->Track not present in AccurateRip database.
    Statistics
        Read error                           : 0
        Jitter error (maybe fixed)           : 0
        Retry sector count                   : 0
        Damaged sector count                 : 0

Track 08
    Filename : /Users/Shared/TORRENTS/Love - 1967 - Forever Changes (MFSL) [FLAC]/08 Live And Let Live.flac
    Pre-gap length : 00:03:29

    Track gain               : 0.26 dB
    Peak                     : 0.653625
    CRC32 hash (test run)    : 8B1E8029
    CRC32 hash               : 8B1E8029
    CRC32 hash (skip zero)   : 7706583B
    AccurateRip v1 signature : 1BBC05A2
    AccurateRip v2 signature : 6AC49AF6
        ->Track not present in AccurateRip database.
    Statistics
        Read error                           : 0
        Jitter error (maybe fixed)           : 0
        Retry sector count                   : 0
        Damaged sector count                 : 0

Track 09
    Filename : /Users/Shared/TORRENTS/Love - 1967 - Forever Changes (MFSL) [FLAC]/09 The Good Humor Man He Sees Everything Like This.flac
    Pre-gap length : 00:02:47

    Track gain               : 4.39 dB
    Peak                     : 0.648834
    CRC32 hash (test run)    : CFFC0118
    CRC32 hash               : CFFC0118
    CRC32 hash (skip zero)   : 99CF872D
    AccurateRip v1 signature : 01198301
    AccurateRip v2 signature : 3AB38BCE
        ->Track not present in AccurateRip database.
    Statistics
        Read error                           : 0
        Jitter error (maybe fixed)           : 0
        Retry sector count                   : 0
        Damaged sector count                 : 0

Track 10
    Filename : /Users/Shared/TORRENTS/Love - 1967 - Forever Changes (MFSL) [FLAC]/10 Bummer In The Summer.flac
    Pre-gap length : 00:03:05

    Track gain               : 0.40 dB
    Peak                     : 0.727386
    CRC32 hash (test run)    : 7C278BC0
    CRC32 hash               : 7C278BC0
    CRC32 hash (skip zero)   : 55B34348
    AccurateRip v1 signature : 5E63BA00
    AccurateRip v2 signature : C49A4FBC
        ->Track not present in AccurateRip database.
    Statistics
        Read error                           : 0
        Jitter error (maybe fixed)           : 0
        Retry sector count                   : 0
        Damaged sector count                 : 0

Track 11
    Filename : /Users/Shared/TORRENTS/Love - 1967 - Forever Changes (MFSL) [FLAC]/11 You Set The Scene.flac
    Pre-gap length : 00:02:01

    Track gain               : 0.12 dB
    Peak                     : 0.802246
    CRC32 hash (test run)    : A16D8FD6
    CRC32 hash               : A16D8FD6
    CRC32 hash (skip zero)   : 37313B38
    AccurateRip v1 signature : 89991CF0
    AccurateRip v2 signature : F223FDFB
        ->Track not present in AccurateRip database.
    Statistics
        Read error                           : 0
        Jitter error (maybe fixed)           : 0
        Retry sector count                   : 0
        Damaged sector count                 : 0

No errors occurred

End of status report

-----BEGIN XLD SIGNATURE-----
J.0kmb6UC4kKAWk7B5b_hZ0zy8JL2Xr0aUxYKnutkAceej0Ndrg9X62yS5AEc_880p6LEQ.wRQUfpC_5XmgPSRCJe6GoQoZkYT4OgAu
-----END XLD SIGNATURE-----



Create a new paste based on this one


Comments: