[ create a new paste ] login | about

Link: http://codepad.org/8FA6o07G    [ raw code | fork ]

Plain Text, pasted on Jul 18:
Exact Audio Copy V1.1 from 23. June 2015

EAC extraction logfile from 16. July 2016, 13:14

Lulu / Shout! (CD 2)

Used drive  : PLEXTOR DVDR   PX-716A   Adapter: 1  ID: 1

Read mode               : Secure
Utilize accurate stream : Yes
Defeat audio cache      : Yes
Make use of C2 pointers : No

Read offset correction                      : 30
Overread into Lead-In and Lead-Out          : No
Fill up missing offset samples with silence : Yes
Delete leading and trailing silent blocks   : No
Null samples used in CRC calculations       : Yes
Used interface                              : Native Win32 interface for Win NT & 2000

Used output format              : User Defined Encoder
Selected bitrate                : 1024 kBit/s
Quality                         : High
Add ID3 tag                     : No
Command line compressor         : C:\Program Files (x86)\Exact Audio Copy\wavpack.exe
Additional command line options : -hlm %source%


TOC of the extracted CD

     Track |   Start  |  Length  | Start sector | End sector 
    ---------------------------------------------------------
        1  |  0:00.00 |  3:01.32 |         0    |    13606   
        2  |  3:01.32 |  2:58.07 |     13607    |    26963   
        3  |  5:59.39 |  2:42.41 |     26964    |    39154   
        4  |  8:42.05 |  2:28.64 |     39155    |    50318   
        5  | 11:10.69 |  2:49.69 |     50319    |    63062   
        6  | 14:00.63 |  2:02.71 |     63063    |    72283   
        7  | 16:03.59 |  2:41.37 |     72284    |    84395   
        8  | 18:45.21 |  2:31.21 |     84396    |    95741   
        9  | 21:16.42 |  1:45.30 |     95742    |   103646   
       10  | 23:01.72 |  1:54.68 |    103647    |   112264   
       11  | 24:56.65 |  2:27.37 |    112265    |   123326   
       12  | 27:24.27 |  2:41.35 |    123327    |   135436   
       13  | 30:05.62 |  1:47.51 |    135437    |   143512   
       14  | 31:53.38 |  2:44.04 |    143513    |   155816   
       15  | 34:37.42 |  3:08.45 |    155817    |   169961   
       16  | 37:46.12 |  2:25.68 |    169962    |   180904   
       17  | 40:12.05 |  2:25.50 |    180905    |   191829   
       18  | 42:37.55 |  3:19.33 |    191830    |   206787   
       19  | 45:57.13 |  2:50.63 |    206788    |   219600   
       20  | 48:48.01 |  2:16.57 |    219601    |   229857   
       21  | 51:04.58 |  2:18.70 |    229858    |   240277   


Range status and errors

Selected range

     Filename D:\wwphil\Lulu\Shout! (CD 2)\Lulu - Shout! (CD 2).wav

     Peak level 99.9 %
     Extraction speed 3.8 X
     Range quality 100.0 %
     Test CRC 1B741993
     Copy CRC 1B741993
     Copy OK

No errors occurred

 
AccurateRip summary
 
Track  1  accurately ripped (confidence 5)  [DFCF1F1D]  (AR v2)
Track  2  accurately ripped (confidence 5)  [D40A27D5]  (AR v2)
Track  3  accurately ripped (confidence 5)  [35A04F94]  (AR v2)
Track  4  accurately ripped (confidence 5)  [BB3F53DA]  (AR v2)
Track  5  accurately ripped (confidence 5)  [78607AEB]  (AR v2)
Track  6  accurately ripped (confidence 5)  [F2B1BC8F]  (AR v2)
Track  7  accurately ripped (confidence 5)  [4B9FEE9B]  (AR v2)
Track  8  accurately ripped (confidence 5)  [B823BD36]  (AR v2)
Track  9  accurately ripped (confidence 5)  [388B0348]  (AR v2)
Track 10  accurately ripped (confidence 5)  [40111D51]  (AR v2)
Track 11  accurately ripped (confidence 5)  [6165FC6A]  (AR v2)
Track 12  accurately ripped (confidence 5)  [F4FE2721]  (AR v2)
Track 13  accurately ripped (confidence 5)  [CA57405D]  (AR v2)
Track 14  accurately ripped (confidence 5)  [8EEE228B]  (AR v2)
Track 15  accurately ripped (confidence 5)  [F3DE6BEB]  (AR v2)
Track 16  accurately ripped (confidence 5)  [3CC96377]  (AR v2)
Track 17  accurately ripped (confidence 5)  [E6A5C239]  (AR v2)
Track 18  accurately ripped (confidence 5)  [65B86230]  (AR v2)
Track 19  accurately ripped (confidence 5)  [7ACE16A9]  (AR v2)
Track 20  accurately ripped (confidence 5)  [21139A9F]  (AR v2)
Track 21  accurately ripped (confidence 5)  [92BFA802]  (AR v2)
 
All tracks accurately ripped

End of status report

==== Log checksum DD5E62806DDC4933D4E05DCBF524D0CE7A5D44B5DA51C2345A0E56ABB022B0A7 ====



Create a new paste based on this one


Comments: