[ create a new paste ] login | about

Link: http://codepad.org/8Gf1lsmT    [ raw code | fork ]

Plain Text, pasted on Apr 27:
[CUETools log; Date: 4/27/2019 9:21:00 AM; Version: 2.1.5]
[CTDB TOCID: 3goBQi_J2yqxDMmve40tpVoq100-] found.
Track | CTDB Status
  1   | (23/23) Accurately ripped
  2   | (23/23) Accurately ripped
  3   | (23/23) Accurately ripped
  4   | (23/23) Accurately ripped
  5   | (23/23) Accurately ripped
  6   | (23/23) Accurately ripped
  7   | (23/23) Accurately ripped
  8   | (23/23) Accurately ripped
  9   | (23/23) Accurately ripped
 10   | (23/23) Accurately ripped
 11   | (23/23) Accurately ripped
 12   | (23/23) Accurately ripped
[AccurateRip ID: 00203ae2-01320831-af112e0c] found.
Track   [  CRC   |   V2   ] Status
 01     [23fc0787|561f0384] (0+4/4) Accurately ripped
 02     [446e8c08|a4fae46b] (0+4/4) Accurately ripped
 03     [b65aef3c|1f18248b] (0+4/4) Accurately ripped
 04     [9b9a1939|5005e07a] (0+4/4) Accurately ripped
 05     [7db6cd29|3944e7ee] (0+4/4) Accurately ripped
 06     [51bb864d|f2905829] (0+4/4) Accurately ripped
 07     [8187936d|ac36eaa2] (0+4/4) Accurately ripped
 08     [631a5cf1|2a282927] (0+4/4) Accurately ripped
 09     [25d8b004|1385db90] (0+4/4) Accurately ripped
 10     [e23470d4|d6df0616] (0+4/4) Accurately ripped
 11     [b0ceec4d|f085dc80] (0+4/4) Accurately ripped
 12     [578e1fb6|633ed2fe] (0+4/4) Accurately ripped

Track Peak [ CRC32  ] [W/O NULL] [  LOG   ]
 --   97.0 [D4BCC36F] [0710DADE]   CRC32   
 01   97.0 [4D2F31FE] [F8544052]           
 02   97.0 [B61FAF0D] [72374FA9]           
 03   97.0 [CC3CB570] [21DAD02A]           
 04   97.0 [011A06EE] [3F69A47D]           
 05   97.0 [679B0A69] [CFE1BC28]           
 06   97.0 [7CA69265] [EB9AF261]           
 07   97.0 [C0DD0639] [8E4760FA]           
 08   97.0 [827B1B39] [A15676D3]           
 09   97.0 [C1A362C2] [57FB5C54]           
 10   97.0 [CDFF0BAE] [9EF5E326]           
 11   79.3 [90993DFA] [BB3095A3]           
 12   97.0 [12975273] [1596A3CA]           



Create a new paste based on this one


Comments: