[ create a new paste ] login | about

Link: http://codepad.org/8MCaCNfz    [ raw code | fork ]

Plain Text, pasted on Oct 31:
foobar2000 1.3.17 / Dynamic Range Meter 1.1.1
log date: 2018-10-31 06:54:59

--------------------------------------------------------------------------------
Analyzed: R.E.M. / Automatic For the People (2002 Reissue)
--------------------------------------------------------------------------------

DR         Peak         RMS     Duration Track
--------------------------------------------------------------------------------
DR11      -0.15 dB   -14.30 dB      4:31 01-Drive
DR11      -0.08 dB   -12.72 dB      3:51 02-Try Not to Breathe
DR11       0.00 dB   -11.88 dB      4:09 03-The Sidewinder Speaks Tonite
DR10      -0.09 dB   -13.15 dB      5:20 04-Everybody Hurts
DR12      -0.15 dB   -16.04 dB      2:16 05-New Orleans Instrumental No. 1
DR11       0.00 dB   -13.10 dB      4:22 06-Sweetness Follows
DR11       0.00 dB   -13.22 dB      3:18 07-Monty Got a Raw Deal
DR10       0.00 dB   -11.44 dB      4:27 08-Ignoreland
DR12       0.00 dB   -13.74 dB      3:17 09-Star Me Kitten
DR11       0.00 dB   -12.39 dB      5:14 10-Man on the Moon
DR11      -0.23 dB   -13.09 dB      4:18 11-Nightswimming
DR10       0.00 dB   -12.20 dB      3:53 12-Find the River
--------------------------------------------------------------------------------

Number of tracks:  12
Official DR value: DR11

Samplerate:        48000 Hz
Channels:          2
Bits per sample:   24
Bitrate:           1730 kbps
Codec:             FLAC
================================================================================




Create a new paste based on this one


Comments: