[ create a new paste ] login | about

Link: http://codepad.org/8Pr14sYN    [ raw code | fork ]

Plain Text, pasted on Oct 19:
foobar2000 1.6 / Dynamic Range Meter 1.1.1
log date: 2020-10-19 20:55:30

--------------------------------------------------------------------------------
Analyzed: The Guess Who  / Rockin' & The Best Of The Guess Who Volume II
--------------------------------------------------------------------------------

DR         Peak         RMS     Duration Track
--------------------------------------------------------------------------------
DR16      -1.44 dB   -19.45 dB      4:57 01-Heartbroken Bopper 
DR8       -2.88 dB   -20.05 dB      2:38 02-Get Your Ribbons On 
DR8       -2.93 dB   -20.89 dB      3:35 03-Smoke Big Factory 
DR8       -3.31 dB   -20.50 dB      2:35 04-Arrivederci Girl 
DR8       -2.52 dB   -19.67 dB      5:04 05-Guns Guns Guns 
DR7       -3.14 dB   -20.10 dB      2:24 06-Running Bear 
DR8       -3.01 dB   -19.17 dB      3:34 07-Back To The City 
DR9       -3.32 dB   -20.62 dB      3:00 08-Your Nashville Sneakers 
DR8       -1.22 dB   -18.17 dB      3:35 09-Herberts A Loser
DR8       -1.46 dB   -19.77 dB      6:52 10-Hi Rockers
DR8       -1.24 dB   -18.31 dB      3:09 11-Broken 
DR8       -2.55 dB   -19.05 dB      2:28 12-Albert Flasher 
DR6       -1.63 dB   -16.78 dB      2:43 13-Rain Dance 
DR7       -3.79 dB   -20.83 dB      4:07 14-Sour Suite 
DR7       -2.81 dB   -19.57 dB      3:15 15-Life In The Bloodstream 
DR7       -1.89 dB   -17.98 dB      5:00 16-Guns Guns Guns 
DR7       -3.36 dB   -19.24 dB      4:13 17-Heartbroken Bopper 
DR9       -0.62 dB   -20.00 dB      6:22 18-Runnin Back To Saskatoon
DR8       -2.19 dB   -19.51 dB      3:40 19-Follow Your Daughter Home 
DR7       -2.19 dB   -18.53 dB      2:57 20-Orly 
DR8       -1.76 dB   -20.08 dB      4:29 21-Glamour Boy 
--------------------------------------------------------------------------------

Number of tracks:  21
Official DR value: DR8

Samplerate:        88200 Hz
Channels:          6
Bits per sample:   24
Bitrate:           5514 kbps
Codec:             FLAC
================================================================================




Create a new paste based on this one


Comments: