[ create a new paste ] login | about

Link: http://codepad.org/8Qi91Ytq    [ raw code | fork ]

Plain Text, pasted on Jul 9:
Exact Audio Copy V1.0 beta 3 from 29. August 2011

EAC extraction logfile from 8. August 2014, 9:10

Ambrosia / Anthology

Used drive  : HL-DT-STDVDRAM GH24NSB0   Adapter: 1  ID: 0

Read mode               : Secure
Utilize accurate stream : Yes
Defeat audio cache      : Yes
Make use of C2 pointers : No

Read offset correction                      : 6
Overread into Lead-In and Lead-Out          : No
Fill up missing offset samples with silence : Yes
Delete leading and trailing silent blocks   : No
Null samples used in CRC calculations       : Yes
Used interface                              : Native Win32 interface for Win NT & 2000
Gap handling                                : Appended to previous track

Used output format              : User Defined Encoder
Selected bitrate                : 1024 kBit/s
Quality                         : High
Add ID3 tag                     : No
Command line compressor         : C:\Program Files (x86)\Exact Audio Copy\Flac\flac.exe
Additional command line options : -V -8 -T "Genre=%genre%" -T "Artist=%artist%" -T "Title=%title%" -T "Album=%albumtitle%" -T "Date=%year%" -T "Tracknumber=%tracknr%" -T "Comment=%comment%" %source%


TOC of the extracted CD

     Track |   Start  |  Length  | Start sector | End sector 
    ---------------------------------------------------------
        1  |  0:00.00 |  4:31.05 |         0    |    20329   
        2  |  4:31.05 |  5:25.20 |     20330    |    44724   
        3  |  9:56.25 |  4:20.25 |     44725    |    64249   
        4  | 14:16.50 |  5:51.72 |     64250    |    90646   
        5  | 20:08.47 |  4:45.53 |     90647    |   112074   
        6  | 24:54.25 |  4:40.72 |    112075    |   133146   
        7  | 29:35.22 |  4:16.68 |    133147    |   152414   
        8  | 33:52.15 |  3:50.37 |    152415    |   169701   
        9  | 37:42.52 |  4:43.70 |    169702    |   190996   
       10  | 42:26.47 |  4:57.73 |    190997    |   213344   
       11  | 47:24.45 |  5:20.35 |    213345    |   237379   
       12  | 52:45.05 |  2:47.57 |    237380    |   249961   
       13  | 55:32.62 |  5:00.18 |    249962    |   272479   
       14  | 60:33.05 |  6:02.00 |    272480    |   299629   
       15  | 66:35.05 |  3:59.00 |    299630    |   317554   
       16  | 70:34.05 |  5:22.25 |    317555    |   341729   


Track  1

     Filename D:\Music\Musicgate's rips\Ambrosia - Anthology - 1997 (Warner)\01. Mama Don't Understand.wav

     Pre-gap length  0:00:02.00

     Peak level 99.3 %
     Extraction speed 1.2 X
     Track quality 100.0 %
     Test CRC 7D63BA8F
     Copy CRC 7D63BA8F
     Accurately ripped (confidence 3)  [B826D65A]  (AR v2)
     Copy OK

Track  2

     Filename D:\Music\Musicgate's rips\Ambrosia - Anthology - 1997 (Warner)\02. Biggest Part of Me.wav

     Pre-gap length  0:00:01.20

     Peak level 99.3 %
     Extraction speed 1.3 X
     Track quality 100.0 %
     Test CRC 17ADED1A
     Copy CRC 17ADED1A
     Accurately ripped (confidence 3)  [CA41E38D]  (AR v2)
     Copy OK

Track  3

     Filename D:\Music\Musicgate's rips\Ambrosia - Anthology - 1997 (Warner)\03. You're the Only Woman.wav

     Pre-gap length  0:00:00.13

     Peak level 99.3 %
     Extraction speed 1.4 X
     Track quality 100.0 %
     Test CRC 020FC55E
     Copy CRC 020FC55E
     Accurately ripped (confidence 3)  [C1C0FBF8]  (AR v2)
     Copy OK

Track  4

     Filename D:\Music\Musicgate's rips\Ambrosia - Anthology - 1997 (Warner)\04. Nice, Nice, Very Nice.wav

     Pre-gap length  0:00:01.25

     Peak level 99.3 %
     Extraction speed 1.6 X
     Track quality 100.0 %
     Test CRC 9031ED9C
     Copy CRC 9031ED9C
     Accurately ripped (confidence 3)  [9A5326C0]  (AR v2)
     Copy OK

Track  5

     Filename D:\Music\Musicgate's rips\Ambrosia - Anthology - 1997 (Warner)\05. Life Beyond L.A..wav

     Pre-gap length  0:00:02.47

     Peak level 99.3 %
     Extraction speed 1.7 X
     Track quality 100.0 %
     Test CRC BFEDFC95
     Copy CRC BFEDFC95
     Accurately ripped (confidence 3)  [D5CA59B6]  (AR v2)
     Copy OK

Track  6

     Filename D:\Music\Musicgate's rips\Ambrosia - Anthology - 1997 (Warner)\06. Livin' on My Own.wav

     Pre-gap length  0:00:00.38

     Peak level 99.3 %
     Extraction speed 1.8 X
     Track quality 100.0 %
     Test CRC CD1B084E
     Copy CRC CD1B084E
     Accurately ripped (confidence 3)  [7E196912]  (AR v2)
     Copy OK

Track  7

     Filename D:\Music\Musicgate's rips\Ambrosia - Anthology - 1997 (Warner)\07. Holdin' on to Yesterday.wav

     Pre-gap length  0:00:00.72

     Peak level 99.3 %
     Extraction speed 1.8 X
     Track quality 100.0 %
     Test CRC B4332E2A
     Copy CRC B4332E2A
     Accurately ripped (confidence 3)  [52C75F57]  (AR v2)
     Copy OK

Track  8

     Filename D:\Music\Musicgate's rips\Ambrosia - Anthology - 1997 (Warner)\08. Angola.wav

     Pre-gap length  0:00:01.55

     Peak level 99.3 %
     Extraction speed 1.9 X
     Track quality 100.0 %
     Test CRC 6FE942CB
     Copy CRC 6FE942CB
     Accurately ripped (confidence 3)  [78D86213]  (AR v2)
     Copy OK

Track  9

     Filename D:\Music\Musicgate's rips\Ambrosia - Anthology - 1997 (Warner)\09. How Much I Feel.wav

     Pre-gap length  0:00:02.57

     Peak level 99.3 %
     Extraction speed 2.0 X
     Track quality 100.0 %
     Test CRC D553C800
     Copy CRC D553C800
     Accurately ripped (confidence 3)  [60A1D724]  (AR v2)
     Copy OK

Track 10

     Filename D:\Music\Musicgate's rips\Ambrosia - Anthology - 1997 (Warner)\10. Time Waits for No One.wav

     Pre-gap length  0:00:01.22

     Peak level 99.3 %
     Extraction speed 2.1 X
     Track quality 100.0 %
     Test CRC 0FF59348
     Copy CRC 0FF59348
     Accurately ripped (confidence 3)  [E4D14C8F]  (AR v2)
     Copy OK

Track 11

     Filename D:\Music\Musicgate's rips\Ambrosia - Anthology - 1997 (Warner)\11. I Just Can't Let Go.wav

     Pre-gap length  0:00:00.60

     Peak level 99.3 %
     Extraction speed 2.2 X
     Track quality 100.0 %
     Test CRC A2E2F4A1
     Copy CRC A2E2F4A1
     Accurately ripped (confidence 3)  [8FCAC839]  (AR v2)
     Copy OK

Track 12

     Filename D:\Music\Musicgate's rips\Ambrosia - Anthology - 1997 (Warner)\12. Heart to Heart.wav

     Pre-gap length  0:00:00.28

     Peak level 99.3 %
     Extraction speed 2.1 X
     Track quality 100.0 %
     Test CRC 7D00C665
     Copy CRC 7D00C665
     Accurately ripped (confidence 3)  [51D94ADE]  (AR v2)
     Copy OK

Track 13

     Filename D:\Music\Musicgate's rips\Ambrosia - Anthology - 1997 (Warner)\13. And...Somewhere I've Never Travelled.wav

     Pre-gap length  0:00:02.10

     Peak level 99.3 %
     Extraction speed 2.3 X
     Track quality 100.0 %
     Test CRC 40A59481
     Copy CRC 40A59481
     Accurately ripped (confidence 3)  [B5657635]  (AR v2)
     Copy OK

Track 14

     Filename D:\Music\Musicgate's rips\Ambrosia - Anthology - 1997 (Warner)\14. Sky Is Falling.wav

     Pre-gap length  0:00:01.35

     Peak level 99.3 %
     Extraction speed 2.5 X
     Track quality 100.0 %
     Test CRC F66BAA05
     Copy CRC F66BAA05
     Accurately ripped (confidence 3)  [6398A762]  (AR v2)
     Copy OK

Track 15

     Filename D:\Music\Musicgate's rips\Ambrosia - Anthology - 1997 (Warner)\15. Still Not Satisfied.wav

     Pre-gap length  0:00:01.08

     Peak level 99.3 %
     Extraction speed 2.4 X
     Track quality 100.0 %
     Test CRC 983162E2
     Copy CRC 983162E2
     Accurately ripped (confidence 3)  [B4842D07]  (AR v2)
     Copy OK

Track 16

     Filename D:\Music\Musicgate's rips\Ambrosia - Anthology - 1997 (Warner)\16. Cowboy Star [Edit].wav

     Pre-gap length  0:00:00.20

     Peak level 99.3 %
     Extraction speed 2.6 X
     Track quality 100.0 %
     Test CRC 5A844170
     Copy CRC 5A844170
     Accurately ripped (confidence 3)  [F41B8208]  (AR v2)
     Copy OK


All tracks accurately ripped

No errors occurred

End of status report

==== Log checksum 2346D84A43575C02E059F5B53BC7AE188B4F6C39CCF84E8ED7657484DEC4B250 ====



Create a new paste based on this one


Comments: