[ create a new paste ] login | about

Link: http://codepad.org/8Rwa1JJe    [ raw code | fork ]

Plain Text, pasted on Dec 7:
[CUETools log; Date: 3/28/2016 9:25:16 AM; Version: 2.1.5]
[CTDB TOCID: zj55xCU_GrDShHOJyG6NdLiMY8Q-] found.
Track | CTDB Status
  1   | (23/23) Accurately ripped
  2   | (23/23) Accurately ripped
  3   | (23/23) Accurately ripped
  4   | (23/23) Accurately ripped
  5   | (23/23) Accurately ripped
  6   | (23/23) Accurately ripped
  7   | (23/23) Accurately ripped
  8   | (23/23) Accurately ripped
[AccurateRip ID: 000c0326-00528c94-610a8a08] found.
Track   [  CRC   |   V2   ] Status
 01     [9be8a3d3|fcffce5d] (34+28/64) Accurately ripped
 02     [777310ee|85800ba0] (34+28/64) Accurately ripped
 03     [5dc92293|08b414ac] (34+28/64) Accurately ripped
 04     [6f3e5cda|ee587dc7] (34+28/64) Accurately ripped
 05     [1bba5bd7|380d1281] (34+28/64) Accurately ripped
 06     [b46a6618|74db1faa] (34+28/64) Accurately ripped
 07     [e7e4d46d|f710594d] (34+27/63) Accurately ripped
 08     [cf14e5cf|a794aa45] (34+28/64) Accurately ripped
Offsetted by -18:
 01     [90746266] (00/64) No match (V2 was not tested)
 02     [e133f6f9] (00/64) No match (V2 was not tested)
 03     [3f23c91f] (00/64) No match (V2 was not tested)
 04     [88cbcaf2] (00/64) No match (V2 was not tested)
 05     [b5b3126c] (00/64) No match (V2 was not tested)
 06     [71e464cb] (00/64) No match (V2 was not tested)
 07     [468443c3] (00/63) No match (V2 was not tested)
 08     [45e93fbf] (00/64) No match (V2 was not tested)

Track Peak [ CRC32  ] [W/O NULL] [  LOG   ]
 --   98.8 [2BA76AB1] [57975A18]           
 01   98.8 [659C02A1] [0209E81A]   CRC32   
 02   98.8 [07F3C6B1] [A0B1AE2E]   CRC32   
 03   98.8 [FDF51D08] [7378ED4F]   CRC32   
 04   98.8 [53545AEA] [E49E7F6A]   CRC32   
 05   98.8 [7A0FA834] [45C49D31]   CRC32   
 06   98.8 [70C404BC] [9B95DF54]   CRC32   
 07   98.8 [D6A3F36A] [888F6336]   CRC32   
 08   98.8 [0E45DE05] [3A577C0C]   CRC32   



Create a new paste based on this one


Comments: