[ create a new paste ] login | about

Link: http://codepad.org/8SQPugRg    [ raw code | fork ]

Plain Text, pasted on Sep 11:
foobar2000 1.3.8 / Dynamic Range Meter 1.1.1
log date: 2015-10-19 13:58:47

--------------------------------------------------------------------------------
Analyzed: Roger Waters / Amused To Death (2015 AP Hybrid SACD)
--------------------------------------------------------------------------------

DR         Peak         RMS     Duration Track
--------------------------------------------------------------------------------
DR14      -7.33 dB   -26.09 dB      4:20 01-The Ballad of Bill Hubbard
DR12      -0.67 dB   -15.89 dB      6:00 02-What God Wants, Part I
DR12      -4.57 dB   -21.12 dB      4:15 03-Perfect Sense, Part I
DR11      -1.78 dB   -17.01 dB      2:51 04-Perfect Sense, Part II
DR11      -2.75 dB   -15.93 dB      4:45 05-The Bravery of Being Out of Range
DR10      -0.63 dB   -19.06 dB      4:01 06-Late Home Tonight, Part I
DR12      -8.47 dB   -26.16 dB      2:13 07-Late Home Tonight, Part II
DR12      -1.97 dB   -19.17 dB      5:47 08-Too Much Rope
DR12      -2.35 dB   -18.46 dB      3:40 09-What God Wants, Part II
DR12      -2.12 dB   -17.86 dB      4:09 10-What God Wants, Part III
DR13      -7.34 dB   -24.01 dB      6:07 11-Watching TV
DR14      -0.72 dB   -20.15 dB      6:51 12-Three Wishes
DR15      -1.73 dB   -22.79 dB      8:31 13-It's a Miracle
DR13      -0.70 dB   -19.20 dB      9:13 14-Amused to Death
--------------------------------------------------------------------------------

Number of tracks:  14
Official DR value: DR12

Samplerate:        88200 Hz
Channels:          2
Bits per sample:   24
Bitrate:           2412 kbps
Codec:             FLAC
================================================================================




Create a new paste based on this one


Comments: