[ create a new paste ] login | about

Link: http://codepad.org/8VTccuhb    [ raw code | fork ]

Plain Text, pasted on Feb 27:
foobar2000 1.5 / Dynamic Range Meter 1.1.1
log date: 2020-02-27 19:12:55

--------------------------------------------------------------------------------
Analyzed: Melissa Manchester / Melissa
--------------------------------------------------------------------------------

DR         Peak         RMS     Duration Track
--------------------------------------------------------------------------------
DR13      -0.05 dB   -17.35 dB      4:22 01-We've Got Time
DR14      -0.60 dB   -17.65 dB      3:28 02-Party Music
DR14      -1.65 dB   -19.52 dB      3:39 03-Just Too Many People
DR15      -0.05 dB   -18.27 dB      3:33 04-Stevie's Wonder
DR14      -2.00 dB   -18.23 dB      4:31 05-This Lady's Not Home Today
DR14      -0.60 dB   -17.63 dB      4:38 06-Love Havin' You Around
DR13      -1.80 dB   -18.37 dB      3:55 07-Midnight Blue
DR14      -0.05 dB   -16.30 dB      3:33 08-It's Gonna Be Alright
DR13      -0.88 dB   -17.51 dB      2:43 09-I Got Eyes
DR13      -3.02 dB   -21.49 dB      5:02 10-I Don't Want To Hear It Anymore
--------------------------------------------------------------------------------

Number of tracks:  10
Official DR value: DR14

Samplerate:        96000 Hz
Channels:          2
Bits per sample:   24
Bitrate:           2761 kbps
Codec:             FLAC
================================================================================




Create a new paste based on this one


Comments: