[ create a new paste ] login | about

Link: http://codepad.org/8WpjatxU    [ raw code | fork ]

Plain Text, pasted on Feb 29:
Exact Audio Copy V1.0 beta 3 from 29. August 2011

EAC extraction logfile from 8. October 2013, 7:18

The Shadows / The Shadows The Early Years. Their Complete Studio Recordings 1959-1966 CD3

Used drive  : ATAPI   iHAS124   B   Adapter: 2  ID: 0

Read mode               : Secure
Utilize accurate stream : Yes
Defeat audio cache      : Yes
Make use of C2 pointers : No

Read offset correction                      : 6
Overread into Lead-In and Lead-Out          : No
Fill up missing offset samples with silence : Yes
Delete leading and trailing silent blocks   : No
Null samples used in CRC calculations       : Yes
Used interface                              : Native Win32 interface for Win NT & 2000

Used output format              : User Defined Encoder
Selected bitrate                : 1024 kBit/s
Quality                         : High
Add ID3 tag                     : No
Command line compressor         : C:\Program Files (x86)\Exact Audio Copy\FLAC\FLAC.EXE
Additional command line options : -8 -V -T "ARTIST=%artist%" -T "TITLE=%title%" -T "ALBUM=%albumtitle%" -T "DATE=%year%" -T "TRACKNUMBER=%tracknr%" -T "GENRE=%genre%" -T "PERFORMER=%albuminterpret%" -T "COMPOSER=%composer%" %haslyrics%--tag-from-file=LYRICS="%lyricsfile%"%haslyrics% -T "ALBUMARTIST=%albumartist%" -T "DISCNUMBER=%cdnumber%" -T "TOTALDISCS=%totalcds%" -T "TOTALTRACKS=%numtracks%" -T "COMMENT=%comment%" %source% -o %dest%


TOC of the extracted CD

     Track |   Start  |  Length  | Start sector | End sector 
    ---------------------------------------------------------
        1  |  0:00.00 |  2:26.40 |         0    |    10989   
        2  |  2:26.40 |  2:04.08 |     10990    |    20297   
        3  |  4:30.48 |  2:08.34 |     20298    |    29931   
        4  |  6:39.07 |  2:37.55 |     29932    |    41761   
        5  |  9:16.62 |  2:51.01 |     41762    |    54587   
        6  | 12:07.63 |  2:48.57 |     54588    |    67244   
        7  | 14:56.45 |  2:36.64 |     67245    |    79008   
        8  | 17:33.34 |  2:39.25 |     79009    |    90958   
        9  | 20:12.59 |  2:19.62 |     90959    |   101445   
       10  | 22:32.46 |  2:33.27 |    101446    |   112947   
       11  | 25:05.73 |  3:08.58 |    112948    |   127105   
       12  | 28:14.56 |  2:18.21 |    127106    |   137476   
       13  | 30:33.02 |  2:07.63 |    137477    |   147064   
       14  | 32:40.65 |  2:20.58 |    147065    |   157622   
       15  | 35:01.48 |  2:22.58 |    157623    |   168330   
       16  | 37:24.31 |  2:39.18 |    168331    |   180273   
       17  | 40:03.49 |  3:01.00 |    180274    |   193848   
       18  | 43:04.49 |  2:47.57 |    193849    |   206430   
       19  | 45:52.31 |  2:06.32 |    206431    |   215912   
       20  | 47:58.63 |  2:23.32 |    215913    |   226669   
       21  | 50:22.20 |  2:21.38 |    226670    |   237282   
       22  | 52:43.58 |  2:26.07 |    237283    |   248239   
       23  | 55:09.65 |  2:24.05 |    248240    |   259044   
       24  | 57:33.70 |  1:58.71 |    259045    |   267965   
       25  | 59:32.66 |  3:41.08 |    267966    |   284548   
       26  | 63:13.74 |  2:18.71 |    284549    |   294969   
       27  | 65:32.70 |  2:23.36 |    294970    |   305730   
       28  | 67:56.31 |  2:08.45 |    305731    |   315375   
       29  | 70:05.01 |  2:35.12 |    315376    |   327012   
       30  | 72:40.13 |  2:33.01 |    327013    |   338488   
       31  | 75:13.14 |  2:22.63 |    338489    |   349201   


Range status and errors

Selected range

     Filename G:\CD\The Shadows - The Shadows The Early Years CD3.wav

     Peak level 91.6 %
     Extraction speed 6.8 X
     Range quality 100.0 %
     Test CRC 367B2607
     Copy CRC 367B2607
     Copy OK

No errors occurred

 
AccurateRip summary
 
Track  1  not present in database
Track  2  not present in database
Track  3  not present in database
Track  4  not present in database
Track  5  not present in database
Track  6  not present in database
Track  7  not present in database
Track  8  not present in database
Track  9  not present in database
Track 10  not present in database
Track 11  not present in database
Track 12  not present in database
Track 13  not present in database
Track 14  not present in database
Track 15  not present in database
Track 16  not present in database
Track 17  not present in database
Track 18  not present in database
Track 19  not present in database
Track 20  not present in database
Track 21  not present in database
Track 22  not present in database
Track 23  not present in database
Track 24  not present in database
Track 25  not present in database
Track 26  not present in database
Track 27  not present in database
Track 28  not present in database
Track 29  not present in database
Track 30  not present in database
Track 31  not present in database
 
None of the tracks are present in the AccurateRip database

End of status report

==== Log checksum 07F1F0A04410D547E1B55849302BD565CF2CB67120126864A45126C5E358C30F ====



Create a new paste based on this one


Comments: