[ create a new paste ] login | about

Link: http://codepad.org/8cJWs1gQ    [ raw code | fork ]

Plain Text, pasted on Sep 10:
Led Zeppelin (1969) {2005 Remaster)

foobar2000 1.4.6 / Dynamic Range Meter 1.1.1
log date: 2019-09-10 11:57:56

--------------------------------------------------------------------------------
Analyzed: Led Zeppelin / Led Zeppelin [2005 Classic Records 200g Vinyl]
--------------------------------------------------------------------------------

DR         Peak         RMS     Duration Track
--------------------------------------------------------------------------------
DR10      -1.06 dB   -12.94 dB      2:45 01-Good Times Bad Times
DR10      -0.93 dB   -14.39 dB      6:41 02-Babe I'm Gonna Leave You
DR11      -1.19 dB   -13.60 dB      6:27 03-You Shook Me
DR10      -0.40 dB   -12.89 dB      6:30 04-Dazed And Confused
DR10      -2.31 dB   -15.15 dB      4:34 05-Your Time Is Gonna Come
DR10      -3.94 dB   -15.07 dB      2:12 06-Black Mountain Side
DR10      -1.78 dB   -13.41 dB      2:31 07-Communication Breakdown
DR11      -1.26 dB   -16.23 dB      4:42 08-I Can't Quit You Baby
DR10      -1.78 dB   -14.70 dB      8:30 09-How Many More Times
--------------------------------------------------------------------------------

Number of tracks:  9
Official DR value: DR10

Samplerate:        192000 Hz
Channels:          2
Bits per sample:   24
Bitrate:           5415 kbps
Codec:             FLAC
================================================================================

=========================================================================================================================================================

Led Zeppelin II  (1969) {2005 Remaster)

foobar2000 1.4.6 / Dynamic Range Meter 1.1.1
log date: 2019-09-10 11:58:59

--------------------------------------------------------------------------------
Analyzed: Led Zeppelin / Led Zeppelin II [2005 Classic Records 200g Vinyl]
--------------------------------------------------------------------------------

DR         Peak         RMS     Duration Track
--------------------------------------------------------------------------------
DR12      -0.29 dB   -15.70 dB      5:33 01-Whole Lotta Love
DR11      -0.90 dB   -16.93 dB      4:47 02-What Is And What Should Never Be
DR12      -0.13 dB   -15.97 dB      6:17 03-The Lemon Song
DR12      -1.50 dB   -18.54 dB      4:51 04-Thank You
DR11      -1.12 dB   -14.31 dB      4:13 05-Heartbreaker
DR12      -0.36 dB   -13.54 dB      2:38 06-Living Loving Maid (She's Just A Woman)
DR12      -0.51 dB   -16.51 dB      4:34 07-Ramble On
DR11      -0.94 dB   -17.10 dB      4:20 08-Moby Dick
DR11      -1.56 dB   -15.88 dB      4:24 09-Bring It On Home
--------------------------------------------------------------------------------

Number of tracks:  9
Official DR value: DR12

Samplerate:        192000 Hz
Channels:          2
Bits per sample:   24
Bitrate:           5268 kbps
Codec:             FLAC
================================================================================

=========================================================================================================================================================

Led Zeppelin III (1970) {2007 Remaster)

foobar2000 1.4.6 / Dynamic Range Meter 1.1.1
log date: 2019-09-10 12:00:08

--------------------------------------------------------------------------------
Analyzed: Led Zeppelin / Led Zeppelin III [2007 Classic Records 200g Vinyl]
--------------------------------------------------------------------------------

DR         Peak         RMS     Duration Track
--------------------------------------------------------------------------------
DR11      -2.25 dB   -15.47 dB      2:25 01-The Immigrant Song
DR11      -1.26 dB   -15.12 dB      3:54 02-Friends
DR11      -1.79 dB   -14.86 dB      3:29 03-Celebration Day
DR12      -0.26 dB   -15.45 dB      7:23 04-Since I've Been Loving You
DR12      -0.21 dB   -14.67 dB      4:06 05-Out On The Tiles
DR13      -1.41 dB   -17.56 dB      4:57 06-Gallows Pole
DR11      -1.83 dB   -17.28 dB      3:10 07-Tangerine
DR11      -0.58 dB   -15.46 dB      5:37 08-That's The Way
DR12      -0.40 dB   -15.11 dB      4:18 09-Bron-Y-Aur Stomp
DR9       -0.25 dB   -15.32 dB      3:40 10-Hats Off To (Roy) Harper
--------------------------------------------------------------------------------

Number of tracks:  10
Official DR value: DR11

Samplerate:        192000 Hz
Channels:          2
Bits per sample:   24
Bitrate:           5294 kbps
Codec:             FLAC
================================================================================

=========================================================================================================================================================

Led Zeppelin IV (1971) {2005 Remaster)

foobar2000 1.4.6 / Dynamic Range Meter 1.1.1
log date: 2019-09-10 12:01:14

--------------------------------------------------------------------------------
Analyzed: Led Zeppelin / Led Zeppelin IV [2005 Classic Records 200g Vinyl]
--------------------------------------------------------------------------------

DR         Peak         RMS     Duration Track
--------------------------------------------------------------------------------
DR12      -0.02 dB   -15.09 dB      4:56 01-Black Dog
DR10      -0.38 dB   -13.34 dB      3:40 02-Rock And Roll
DR10      -3.75 dB   -18.40 dB      5:51 03-The Battle Of Evermore
DR12      -0.93 dB   -17.84 dB      8:02 04-Stairway To Heaven
DR10      -0.60 dB   -13.39 dB      4:40 05-Misty Mountain Hop
DR11      -1.11 dB   -14.11 dB      4:44 06-Four Sticks
DR10      -4.92 dB   -18.82 dB      3:32 07-Going To California
DR11      -1.23 dB   -14.49 dB      7:10 08-When The Levee Breaks
--------------------------------------------------------------------------------

Number of tracks:  8
Official DR value: DR11

Samplerate:        192000 Hz
Channels:          2
Bits per sample:   24
Bitrate:           5395 kbps
Codec:             FLAC
================================================================================

=========================================================================================================================================================

Houses Of The Holy (1973) {2007 Remaster)

foobar2000 1.4.6 / Dynamic Range Meter 1.1.1
log date: 2019-09-10 12:02:15

--------------------------------------------------------------------------------
Analyzed: Led Zeppelin / Houses Of The Holy [2007 Classic Records 200g Vinyl]
--------------------------------------------------------------------------------

DR         Peak         RMS     Duration Track
--------------------------------------------------------------------------------
DR12      -0.84 dB   -14.42 dB      5:27 01-The Song Remains The Same
DR12      -0.96 dB   -17.66 dB      7:37 02-The Rain Song
DR12      -1.45 dB   -16.92 dB      4:50 03-Over The Hills And Far Away
DR12      -0.94 dB   -14.79 dB      3:18 04-The Crunge
DR11      -1.26 dB   -13.67 dB      3:43 05-Dancing Days
DR13      -0.42 dB   -14.74 dB      4:23 06-D'Yer Mak'er
DR12      -0.71 dB   -17.03 dB      7:01 07-No Quarter
DR12      -0.40 dB   -14.51 dB      4:34 08-The Ocean
--------------------------------------------------------------------------------

Number of tracks:  8
Official DR value: DR12

Samplerate:        192000 Hz
Channels:          2
Bits per sample:   24
Bitrate:           5369 kbps
Codec:             FLAC
================================================================================

=========================================================================================================================================================

Physical Graffiti (1975) {2005 Remaster)

foobar2000 1.4.6 / Dynamic Range Meter 1.1.1
log date: 2019-09-10 12:04:33

--------------------------------------------------------------------------------
Analyzed: Led Zeppelin / Physical Graffiti [2005 Classic Records 200g Vinyl]
--------------------------------------------------------------------------------

DR         Peak         RMS     Duration Track
--------------------------------------------------------------------------------
DR13      -0.04 dB   -16.47 dB      4:14 01-Custard Pie
DR12      -1.26 dB   -15.48 dB      5:37 02-The Rover
DR13      -0.34 dB   -15.69 dB     11:04 03-In My Time Of Dying
DR12      -0.20 dB   -14.34 dB      4:03 04-Houses Of The Holy
DR11      -0.30 dB   -13.55 dB      5:37 05-Trampled Under Foot
DR13      -0.27 dB   -15.84 dB      8:35 06-Kashmir
DR12      -0.07 dB   -16.59 dB      8:49 07-In The Light
DR10      -4.51 dB   -19.54 dB      2:06 08-Bron-Yr-Aur
DR12      -1.66 dB   -16.17 dB      5:15 09-Down By The Seaside
DR12      -1.88 dB   -17.91 dB      6:35 10-Ten Years Gone
DR12      -1.92 dB   -15.50 dB      3:37 11-Night Flight
DR12      -0.36 dB   -15.35 dB      4:09 12-The Wanton Song
DR10      -3.33 dB   -15.99 dB      3:52 13-Boogie With Stu
DR12      -1.87 dB   -17.87 dB      4:32 14-Black Country Woman
DR12      -0.40 dB   -15.48 dB      4:46 15-Sick Again
--------------------------------------------------------------------------------

Number of tracks:  15
Official DR value: DR12

Samplerate:        192000 Hz
Channels:          2
Bits per sample:   24
Bitrate:           5289 kbps
Codec:             FLAC
================================================================================

=========================================================================================================================================================

Presence (1976) {2001 Remaster)

foobar2000 1.4.6 / Dynamic Range Meter 1.1.1
log date: 2019-09-10 12:05:49

--------------------------------------------------------------------------------
Analyzed: Led Zeppelin / Presence [2001 Classic Records 200g Vinyl]
--------------------------------------------------------------------------------

DR         Peak         RMS     Duration Track
--------------------------------------------------------------------------------
DR12      -0.23 dB   -14.64 dB     10:29 01-Achilles Last Stand
DR13      -0.22 dB   -15.24 dB      6:24 02-For Your Life
DR13      -0.19 dB   -14.70 dB      3:01 03-Royal Orleans
DR12      -1.91 dB   -16.20 dB      6:25 04-Nobody's Fault But Mine
DR13      -0.67 dB   -15.62 dB      4:11 05-Candy Store Rock
DR13      -0.11 dB   -15.19 dB      4:42 06-Hots On For Nowhere
DR13      -1.27 dB   -17.70 dB      9:27 07-Tea For One
--------------------------------------------------------------------------------

Number of tracks:  7
Official DR value: DR13

Samplerate:        192000 Hz
Channels:          2
Bits per sample:   24
Bitrate:           5182 kbps
Codec:             FLAC
================================================================================

=========================================================================================================================================================

In Through The Out Door (1979) {2001 Remaster)

foobar2000 1.4.6 / Dynamic Range Meter 1.1.1
log date: 2019-09-10 12:07:01

--------------------------------------------------------------------------------
Analyzed: Led Zeppelin / In Through The Out Door [2001 Classic Records 200g Vinyl]
--------------------------------------------------------------------------------

DR         Peak         RMS     Duration Track
--------------------------------------------------------------------------------
DR14      -0.34 dB   -16.26 dB      6:49 01-In The Evening
DR12      -0.51 dB   -14.68 dB      4:13 02-South Bound Saurez
DR12      -0.40 dB   -16.06 dB      6:09 03-Fool In The Rain
DR12      -1.35 dB   -15.70 dB      3:19 04-Hot Dog
DR12      -1.59 dB   -16.28 dB     10:32 05-Carouselambra
DR12      -1.67 dB   -16.85 dB      5:54 06-All My Love
DR12      -1.58 dB   -17.30 dB      5:31 07-I'm Gonna Crawl
--------------------------------------------------------------------------------

Number of tracks:  7
Official DR value: DR12

Samplerate:        192000 Hz
Channels:          2
Bits per sample:   24
Bitrate:           5140 kbps
Codec:             FLAC
================================================================================

=========================================================================================================================================================

Coda (1982) {2001 Remaster)

foobar2000 1.4.6 / Dynamic Range Meter 1.1.1
log date: 2019-09-10 12:07:58

--------------------------------------------------------------------------------
Analyzed: Led Zeppelin / Coda [2001 Classic Records 200g Vinyl]
--------------------------------------------------------------------------------

DR         Peak         RMS     Duration Track
--------------------------------------------------------------------------------
DR11      -1.15 dB   -13.17 dB      2:37 01-We're Gonna Groove
DR11      -1.49 dB   -13.94 dB      3:02 02-Poor Tom
DR12      -1.83 dB   -15.82 dB      4:17 03-I Can't Quit You Baby
DR11      -1.63 dB   -14.38 dB      4:34 04-Walter's Walk
DR11      -1.37 dB   -13.32 dB      3:35 05-Ozone Baby
DR11      -0.46 dB   -13.86 dB      5:06 06-Darlene
DR11      -0.30 dB   -13.30 dB      4:18 07-Bonzo's Montreux
DR11      -1.58 dB   -13.69 dB      5:32 08-Wearing And Tearing
--------------------------------------------------------------------------------

Number of tracks:  8
Official DR value: DR11

Samplerate:        192000 Hz
Channels:          2
Bits per sample:   24
Bitrate:           5396 kbps
Codec:             FLAC
================================================================================




Create a new paste based on this one


Comments: