[ create a new paste ] login | about

Link: http://codepad.org/8ds11egK    [ raw code | fork ]

Plain Text, pasted on May 15:
foobar2000 1.4.1 / Dynamic Range Meter 1.1.1
log date: 2019-05-15 13:47:58

--------------------------------------------------------------------------------
Analyzed: Neil Diamond / The Jazz Singer  (MFSL 1-071)
--------------------------------------------------------------------------------

DR         Peak         RMS     Duration Track
--------------------------------------------------------------------------------
DR14      -1.74 dB   -17.47 dB      4:19 01-America
DR12     -18.11 dB   -36.31 dB      0:34 02-Adon Olom
DR14      -1.63 dB   -17.24 dB      3:00 03-You Baby
DR12      -3.66 dB   -20.34 dB      3:39 04-Love on the Rocks
DR14      -4.42 dB   -21.90 dB      2:54 05-Amazed and Confused
DR14      -0.74 dB   -18.25 dB      2:03 06-On the Robert E. Lee
DR14      -4.96 dB   -21.62 dB      3:18 07-Summerlove
DR12      -8.07 dB   -23.96 dB      4:09 08-Hello Again
DR14      -4.33 dB   -20.07 dB      2:51 09-Acapulco
DR14      -1.01 dB   -16.78 dB      3:00 10-Hey Louise
DR13      -2.10 dB   -19.02 dB      3:36 11-Songs of Life
DR14      -2.00 dB   -20.23 dB      3:04 12-Jerusalem
DR13      -8.16 dB   -28.37 dB      1:39 13-Kol Nidre/My Name Is Yussel
DR12      -0.55 dB   -15.17 dB      2:25 14-America (Reprise)
--------------------------------------------------------------------------------

Number of tracks:  14
Official DR value: DR13

Samplerate:        96000 Hz
Channels:          2
Bits per sample:   24
Bitrate:           3161 kbps
Codec:             FLAC
================================================================================




Create a new paste based on this one


Comments: