[ create a new paste ] login | about

Link: http://codepad.org/8gaU8t83    [ raw code | fork ]

Plain Text, pasted on Jul 5:
foobar2000 1.4.4 / Dynamic Range Meter 1.1.1
log date: 2019-07-04 22:19:35

--------------------------------------------------------------------------------
Analyzed: Various / Quadro sampler
--------------------------------------------------------------------------------

DR         Peak         RMS     Duration Track
--------------------------------------------------------------------------------
DR13     -10.46 dB   -31.33 dB      7:58 01-Symphony No. 6 in b minor Op. 74 "Pathétique" - Movement 2: Allegro con grazia
DR13      -9.32 dB   -31.79 dB      5:29 02-Piano concerto No. 4 in G Op. 58 - Movement 2: Andante con moto 
DR12     -12.61 dB   -30.50 dB      4:36 03-Horn Concerto in D KV 386b (412/514) - movement 1:  Allegro
DR14     -12.88 dB   -33.18 dB      6:47 04-Symphony No. 4 in A Op.90  "Italian" - Movement 2: Andante con moto
DR13     -10.51 dB   -31.93 dB      2:16 05-Organ Concerto No. 5 in F Op. 4 No. 5 - movement 4.  Presto
DR11     -10.08 dB   -28.04 dB      2:14 06-Flute concerto in F  Op. 10 No. 1 "La tempesta di mare" - Allegro  
DR12      -9.68 dB   -29.90 dB      5:45 07-Clarinet Quintet in A, KV581 - Movement 2: Larghetto
DR13      -4.94 dB   -27.16 dB      7:06 08-Overture « Il Barbiere di Siviglia »
DR12      -9.89 dB   -30.01 dB      3:56 09-Symphony No.7a in G, KV45a - Movement 2: Andante
DR14      -6.45 dB   -31.04 dB      3:41 10-"Rhapsody on a theme by Paganini"Op. 43 - Introduction & Variations 1-6
DR12      -8.05 dB   -24.95 dB      3:08 11-Prelude to Act III  « Lohengrin »
DR12      -4.92 dB   -23.44 dB      5:42 12-Symphony No.3 in E flat, Op.97 « Rhenish » - Movement 5 : Lebhaft
DR13     -10.86 dB   -32.24 dB      1:47 13-Organ Concerto No.3 in G minor, Op.4 No.3 - Movement 5 : Gavotte
DR13     -11.16 dB   -30.94 dB      2:59 14-The Lord's Prayer  (Ivanov)
DR12      -8.24 dB   -26.04 dB      3:48 15-Symphony No.31 in D, KV297  "Paris" - Movement 3 : Allegro
DR13      -4.38 dB   -26.04 dB      7:53 16-Symphony No.3 in C minor, Op.78  « Organ Symphony » - Movement 2 : Maestoso - Piu allegro-Molto allegro
--------------------------------------------------------------------------------

Number of tracks:  16
Official DR value: DR13

Samplerate:        2822400 Hz / PCM Samplerate: 176400 Hz
Channels:          5
Bits per sample:   1
Bitrate:           14112 kbps
Codec:             DST64
================================================================================

--------------------------------------------------------------------------------
Analyzed: Various / Quadro sampler
--------------------------------------------------------------------------------

DR         Peak         RMS     Duration Track
--------------------------------------------------------------------------------
DR13     -10.40 dB   -28.07 dB      7:58 01-Symphony No. 6 in b minor Op. 74 "Pathétique" - Movement 2: Allegro con grazia
DR14     -11.41 dB   -31.49 dB      5:29 02-Piano concerto No. 4 in G Op. 58 - Movement 2: Andante con moto 
DR14     -12.27 dB   -29.43 dB      4:36 03-Horn Concerto in D KV 386b (412/514) - movement 1:  Allegro
DR14     -11.72 dB   -31.00 dB      6:47 04-Symphony No. 4 in A Op.90  "Italian" - Movement 2: Andante con moto
DR13     -11.78 dB   -31.20 dB      2:16 05-Organ Concerto No. 5 in F Op. 4 No. 5 - movement 4.  Presto
DR12     -11.27 dB   -25.85 dB      2:14 06-Flute concerto in F  Op. 10 No. 1 "La tempesta di mare" - Allegro  
DR12      -9.53 dB   -28.27 dB      5:45 07-Clarinet Quintet in A, KV581 - Movement 2: Larghetto
DR14      -6.22 dB   -26.06 dB      7:06 08-Overture « Il Barbiere di Siviglia »
DR13     -10.00 dB   -27.49 dB      3:56 09-Symphony No.7a in G, KV45a - Movement 2: Andante
DR14      -7.81 dB   -29.52 dB      3:41 10-"Rhapsody on a theme by Paganini"Op. 43 - Introduction & Variations 1-6
DR11      -8.10 dB   -22.63 dB      3:08 11-Prelude to Act III  « Lohengrin »
DR12      -5.64 dB   -24.16 dB      5:42 12-Symphony No.3 in E flat, Op.97 « Rhenish » - Movement 5 : Lebhaft
DR13     -13.34 dB   -30.32 dB      1:47 13-Organ Concerto No.3 in G minor, Op.4 No.3 - Movement 5 : Gavotte
DR13     -10.14 dB   -28.36 dB      2:59 14-The Lord's Prayer  (Ivanov)
DR12      -9.76 dB   -26.22 dB      3:48 15-Symphony No.31 in D, KV297  "Paris" - Movement 3 : Allegro
DR14      -5.32 dB   -24.53 dB      7:53 16-Symphony No.3 in C minor, Op.78  « Organ Symphony » - Movement 2 : Maestoso - Piu allegro-Molto allegro
--------------------------------------------------------------------------------

Number of tracks:  16
Official DR value: DR13

Samplerate:        2822400 Hz / PCM Samplerate: 176400 Hz
Channels:          2
Bits per sample:   1
Bitrate:           5645 kbps
Codec:             DST64
================================================================================




Create a new paste based on this one


Comments: