[ create a new paste ] login | about

Link: http://codepad.org/8j37w9jL    [ raw code | fork ]

Plain Text, pasted on Jul 31:
foobar2000 1.3.17 / Dynamic Range Meter 1.1.1
log date: 2018-07-30 14:35:48

--------------------------------------------------------------------------------
Analyzed: Rod Stewart / Gasoline Alley
--------------------------------------------------------------------------------

DR         Peak         RMS     Duration Track
--------------------------------------------------------------------------------
DR11      -3.79 dB   -17.67 dB      4:06 01-Gasoline Alley
DR11      -4.32 dB   -18.17 dB      6:27 02-It's All Over Now
DR11      -3.37 dB   -19.70 dB      4:19 03-Only A Hobo
DR11      -4.41 dB   -18.47 dB      3:56 04-My Way Of Giving
DR12      -3.56 dB   -19.29 dB      4:46 05-Country Comforts
DR12      -3.26 dB   -18.25 dB      6:34 06-Cut Across Shorty
DR11      -7.53 dB   -21.41 dB      4:12 07-Lady Day
DR12      -6.07 dB   -21.85 dB      3:30 08-Jo's Lament
DR12      -4.74 dB   -19.06 dB      4:34 09-You're My Girl (I Don't Want To Discuss It)
--------------------------------------------------------------------------------

Number of tracks:  9
Official DR value: DR12

Samplerate:        2822400 Hz / PCM Samplerate: 176400 Hz
Channels:          2
Bits per sample:   1
Bitrate:           5645 kbps
Codec:             DSD64
================================================================================




Create a new paste based on this one


Comments: