[ create a new paste ] login | about

Link: http://codepad.org/8mLc9t2w    [ raw code | fork ]

Plain Text, pasted on Jun 7:
foobar2000 1.3 / Dynamic Range Meter 1.1.1
log date: 2014-10-21 13:18:46

--------------------------------------------------------------------------------
Analyzed: Leonard Slatkin & The Saint Louis Symphony Orchestra / Gershwin: An American In Paris, Catfish Row (Suite From "Porgy And Bess") - Promenade - Rhapsody In Blue - Cuban Overture (2005 MFSL Hybrid SACD)
--------------------------------------------------------------------------------

DR         Peak         RMS     Duration Track
--------------------------------------------------------------------------------
DR9       -1.91 dB   -27.48 dB      6:10 01-Catfish Row (Suite From "Porgy and Bess"): Introduction - Act I, Scene I
DR9       -4.83 dB   -31.66 dB      5:17 02-Catfish Row (Suite From "Porgy and Bess"): Porgy Sings
DR9       -1.64 dB   -26.71 dB      1:59 03-Catfish Row (Suite From "Porgy and Bess"): Fugue
DR11      -0.51 dB   -26.06 dB      4:09 04-Catfish Row (Suite From "Porgy and Bess"): Hurricane - Act II, Scene 3
DR10      -0.54 dB   -26.73 dB      7:39 05-Catfish Row (Suite From "Porgy and Bess"): Good Morning' Brother - Act III, Scene 3
DR10      -0.54 dB   -26.00 dB     17:55 06-An American In Paris
DR9       -9.05 dB   -32.77 dB      3:13 07-Promenade
DR10      -0.86 dB   -25.98 dB     17:57 08-Rhapsody in Blue
DR11      -0.01 dB   -25.04 dB     10:24 09-Cuban Oventure
--------------------------------------------------------------------------------

Number of tracks:  9
Official DR value: DR10

Samplerate:        88200 Hz
Channels:          6
Bits per sample:   24
Bitrate:           5215 kbps
Codec:             FLAC
================================================================================




Create a new paste based on this one


Comments: