[ create a new paste ] login | about

Link: http://codepad.org/8osHJ1gj    [ raw code | fork ]

Plain Text, pasted on Aug 15:
foobar2000 1.3.17 / Dynamic Range Meter 1.1.1
log date: 2018-08-15 09:32:30

--------------------------------------------------------------------------------
Analyzed: Charles Aznavour / Je m'voyais deja
--------------------------------------------------------------------------------

DR         Peak         RMS     Duration Track
--------------------------------------------------------------------------------
DR11      -0.08 dB   -18.17 dB      3:53 01-Les deux guitares
DR11      -0.34 dB   -17.93 dB      2:10 02-Ce jour tant attendu
DR11      -0.62 dB   -18.74 dB      2:15 03-Fraternite
DR12      -0.05 dB   -18.25 dB      2:36 04-J'ai des millions de rien du tout
DR12      -0.01 dB   -17.85 dB      2:48 05-J'ai perdu la tete
DR12      -1.63 dB   -20.23 dB      3:42 06-Tu t'laisses aller
DR11      -0.02 dB   -15.84 dB      2:04 07-Rendez vous a Brasilla
DR11      -0.08 dB   -17.63 dB      3:02 08-La nuit
DR11      -0.47 dB   -17.87 dB      2:27 09-C'n'est pas necessairement ca
DR11      -0.60 dB   -17.66 dB      2:24 10-Plus heureux que moi
DR12      -0.05 dB   -17.12 dB      3:24 11-Je m'voyais deja
DR11      -0.07 dB   -17.02 dB      2:13 12-Quand tu m'embrasses
DR11      -0.11 dB   -21.44 dB      4:31 13-Noel des mages
DR11      -1.05 dB   -19.76 dB      2:37 14-L'amour et la guerre
DR11      -0.83 dB   -19.02 dB      2:28 15-Comme des etrangers
DR11      -1.41 dB   -17.45 dB      2:37 16-Prends le chorus
DR12      -1.55 dB   -19.05 dB      2:10 17-Tu ta vie mon coeur
DR11      -1.51 dB   -18.42 dB      2:31 18-L'enfant prodigue
DR11      -0.27 dB   -18.06 dB      2:40 19-Monsieur est mort
--------------------------------------------------------------------------------

Number of tracks:  19
Official DR value: DR11

Samplerate:        88200 Hz
Channels:          6
Bits per sample:   24
Bitrate:           7666 kbps
Codec:             FLAC
================================================================================




Create a new paste based on this one


Comments: