[ create a new paste ] login | about

Link: http://codepad.org/8s7s4LzW    [ raw code | fork ]

Plain Text, pasted on Apr 11:
Exact Audio Copy V1.0 beta 1 from 15. November 2010

EAC extraction logfile from 11. March 2011, 23:13

Rickie Lee Jones / Pirates (2009 Hybrid SACD)

Used drive  : PLEXTOR CD-R   PREMIUM   Adapter: 2  ID: 0

Read mode               : Secure
Utilize accurate stream : Yes
Defeat audio cache      : Yes
Make use of C2 pointers : No

Read offset correction                      : 30
Overread into Lead-In and Lead-Out          : Yes
Fill up missing offset samples with silence : Yes
Delete leading and trailing silent blocks   : No
Null samples used in CRC calculations       : Yes
Used interface                              : Native Win32 interface for Win NT & 2000
Gap handling                                : Appended to previous track

Used output format              : User Defined Encoder
Selected bitrate                : 896 kBit/s
Quality                         : High
Add ID3 tag                     : No
Command line compressor         : E:\Program Files (x86)\Exact Audio Copy\Flac\flac.exe
Additional command line options : -8 -V -T "ARTIST=%a" -T "TITLE=%t" -T "ALBUM=%g" -T "DATE=%y" -T "TRACKNUMBER=%n" -T "TOTALTRACKS=%x" -T "GENRE=%m" -T "ALBUMARTIST=%v" -T "ALBUM ARTIST=%v" -T "COMMENT=EAC Secure Mode, Test & Copy, AccurateRip, FLAC -8" %s


TOC of the extracted CD

     Track |   Start  |  Length  | Start sector | End sector 
    ---------------------------------------------------------
        1  |  0:00.00 |  5:03.19 |         0    |    22743   
        2  |  5:03.19 |  6:20.65 |     22744    |    51308   
        3  | 11:24.09 |  3:37.73 |     51309    |    67656   
        4  | 15:02.07 |  5:19.49 |     67657    |    91630   
        5  | 20:21.56 |  3:53.12 |     91631    |   109117   
        6  | 24:14.68 |  4:16.56 |    109118    |   128373   
        7  | 28:31.49 |  7:53.32 |    128374    |   163880   
        8  | 36:25.06 |  2:23.16 |    163881    |   174621   


Track  1

     Filename R:\EAC Rips\01 - We Belong Together.wav

     Pre-gap length  0:00:02.00

     Peak level 97.8 %
     Extraction speed 5.3 X
     Track quality 100.0 %
     Test CRC F3A19CDC
     Copy CRC F3A19CDC
     Accurately ripped (confidence 2)  [8DF84176]
     Copy OK

Track  2

     Filename R:\EAC Rips\02 - Living It Up.wav

     Peak level 98.8 %
     Extraction speed 5.3 X
     Track quality 99.9 %
     Test CRC 01A2BA76
     Copy CRC 01A2BA76
     Accurately ripped (confidence 2)  [CD0D2238]
     Copy OK

Track  3

     Filename R:\EAC Rips\03 - Skeletons.wav

     Peak level 98.7 %
     Extraction speed 6.2 X
     Track quality 100.0 %
     Test CRC 140FADFE
     Copy CRC 140FADFE
     Accurately ripped (confidence 2)  [4F1021E6]
     Copy OK

Track  4

     Filename R:\EAC Rips\04 - Woody And Dutch On The Slow Train To Peking.wav

     Peak level 98.3 %
     Extraction speed 7.0 X
     Track quality 100.0 %
     Test CRC 2B4C04FD
     Copy CRC 2B4C04FD
     Accurately ripped (confidence 2)  [5EEFCF59]
     Copy OK

Track  5

     Filename R:\EAC Rips\05 - Pirates (So Long Lonely Avenue).wav

     Pre-gap length  0:00:04.72

     Peak level 96.8 %
     Extraction speed 7.1 X
     Track quality 100.0 %
     Test CRC BB758A6A
     Copy CRC BB758A6A
     Accurately ripped (confidence 2)  [464CAD16]
     Copy OK

Track  6

     Filename R:\EAC Rips\06 - A Lucky Guy.wav

     Peak level 98.7 %
     Extraction speed 7.6 X
     Track quality 100.0 %
     Test CRC 240D40A3
     Copy CRC 240D40A3
     Accurately ripped (confidence 2)  [84578693]
     Copy OK

Track  7

     Filename R:\EAC Rips\07 - Traces Of Western Slopes.wav

     Peak level 98.9 %
     Extraction speed 8.5 X
     Track quality 100.0 %
     Test CRC E11121AE
     Copy CRC E11121AE
     Accurately ripped (confidence 2)  [BFDAFF63]
     Copy OK

Track  8

     Filename R:\EAC Rips\08 - The Returns.wav

     Peak level 97.1 %
     Extraction speed 9.5 X
     Track quality 100.0 %
     Test CRC 9358F6DA
     Copy CRC 9358F6DA
     Accurately ripped (confidence 2)  [28C18F1B]
     Copy OK


All tracks accurately ripped

No errors occurred

End of status report

==== Log checksum 6CFAB271D87A2B7175627EB4D379DF3EF2BE05A9204CCFED68A19CF70EDEB99C ====



Create a new paste based on this one


Comments: