[ create a new paste ] login | about

Link: http://codepad.org/8xJUjtNi    [ raw code | fork ]

Plain Text, pasted on Oct 1:
foobar2000 1.6 / Dynamic Range Meter 1.1.1
log date: 2020-10-02 01:22:23

--------------------------------------------------------------------------------
Analyzed: Duke Ellington & His Orchestra / Masterpieces by Ellington
--------------------------------------------------------------------------------

DR         Peak         RMS     Duration Track
--------------------------------------------------------------------------------
DR14      -0.13 dB   -17.33 dB     15:30 01-Mood Indigo
DR14      -0.59 dB   -17.97 dB     11:30 02-Sophisticated Lady
DR12      -1.10 dB   -16.47 dB     11:43 03-The Tattooed Bride
DR14      -1.99 dB   -18.90 dB      8:27 04-Solitude
DR12      -2.63 dB   -15.98 dB      3:12 05-Vagabonds
DR12      -1.24 dB   -15.45 dB      2:49 06-Smada
DR12      -1.37 dB   -17.23 dB      2:30 07-Rock Skippin' at the Blue Note
--------------------------------------------------------------------------------

Number of tracks:  7
Official DR value: DR13

Samplerate:        88200 Hz
Channels:          2
Bits per sample:   24
Bitrate:           2298 kbps
Codec:             FLAC
================================================================================




Create a new paste based on this one


Comments: