[ create a new paste ] login | about

Link: http://codepad.org/92OegAut    [ raw code | fork ]

Plain Text, pasted on May 8:
foobar2000 1.4.1 / Dynamic Range Meter 1.1.1
log date: 2019-05-07 23:27:10

--------------------------------------------------------------------------------
Analyzed: Miles Davis / Bitches Brew
--------------------------------------------------------------------------------

DR         Peak         RMS     Duration Track
--------------------------------------------------------------------------------
DR11      -0.17 dB   -14.76 dB     20:07 01-Pharaoh's Dance
DR12      -0.01 dB   -15.36 dB     26:57 02-Bitches Brew
--------------------------------------------------------------------------------

Number of tracks:  2
Official DR value: DR11

Samplerate:        88200 Hz
Channels:          2
Bits per sample:   24
Bitrate:           2678 kbps
Codec:             FLAC
================================================================================

foobar2000 1.4.1 / Dynamic Range Meter 1.1.1
log date: 2019-05-07 23:28:27

--------------------------------------------------------------------------------
Analyzed: Miles Davis / Bitches Brew
--------------------------------------------------------------------------------

DR         Peak         RMS     Duration Track
--------------------------------------------------------------------------------
DR12      -0.01 dB   -14.67 dB     17:37 01-Spanish Key
DR12      -2.23 dB   -17.09 dB      4:26 02-John McLaughlin
DR12      -1.01 dB   -15.13 dB     14:04 03-Miles Runs The Voodoo Down
DR12      -1.29 dB   -18.05 dB     11:00 04-Sanctuary
DR13      -0.12 dB   -17.22 dB     11:49 05-Feio
--------------------------------------------------------------------------------

Number of tracks:  5
Official DR value: DR12

Samplerate:        88200 Hz
Channels:          2
Bits per sample:   24
Bitrate:           2619 kbps
Codec:             FLAC
================================================================================




Create a new paste based on this one


Comments: