[ create a new paste ] login | about

Link: http://codepad.org/95cypmjQ    [ raw code | fork ]

Plain Text, pasted on Mar 19:
[CUETools log; Date: 3/18/2019 10:05:34 PM; Version: 2.1.5]
[CTDB TOCID: nRu.YDViK7hgqmVrg2ugjnYvWnM-] found.
Track | CTDB Status
  1   | (159/159) Accurately ripped
  2   | (158/159) Accurately ripped
  3   | (159/159) Accurately ripped
  4   | (159/159) Accurately ripped
  5   | (159/159) Accurately ripped
  6   | (159/159) Accurately ripped
  7   | (159/159) Accurately ripped
  8   | (159/159) Accurately ripped
  9   | (157/159) Accurately ripped
[AccurateRip ID: 000c9360-005d5a65-7409f009] found.
Track   [  CRC   |   V2   ] Status
 01     [1bb3b7f6|a7bdf316] (00+19/26) Accurately ripped
 02     [dcac0502|b53d934f] (00+18/25) Accurately ripped
 03     [cb9fac5e|8aebd327] (00+19/26) Accurately ripped
 04     [3d2f8441|81ea94ee] (00+19/26) Accurately ripped
 05     [3b89d2e6|72976f23] (00+19/26) Accurately ripped
 06     [9f9d70fb|79a2004f] (00+19/26) Accurately ripped
 07     [6d1382dd|e35a36c4] (00+18/25) Accurately ripped
 08     [8d3be2ae|341129ab] (00+19/26) Accurately ripped
 09     [4a68b377|7eb57878] (00+19/26) Accurately ripped
Offsetted by -12:
 01     [a44f43b9] (00/26) No match (V2 was not tested)
 02     [5a29cf6c] (00/25) No match (V2 was not tested)
 03     [7d88f2ae] (00/26) No match (V2 was not tested)
 04     [163d280b] (00/26) No match (V2 was not tested)
 05     [302c25a7] (00/26) No match (V2 was not tested)
 06     [7d15ca70] (00/26) No match (V2 was not tested)
 07     [fe7ae118] (00/25) No match (V2 was not tested)
 08     [08484f35] (00/26) No match (V2 was not tested)
 09     [f74a569f] (00/26) No match (V2 was not tested)

Track Peak [ CRC32  ] [W/O NULL] [  LOG   ]
 --   99.0 [F8A7AAEE] [3FCEE3BB]   CRC32   
 01   99.0 [7D532673] [D85E1F02]           
 02   90.5 [1C4EB9DA] [AB662EC5]           
 03   90.1 [1ECF73C5] [7EA62D1B]           
 04   86.7 [5ABE7EC6] [20C720C3]           
 05   90.9 [96886854] [2A68EE0A]           
 06   82.3 [D940270D] [182D7CBA]           
 07   98.3 [EAFBA2A1] [9D51E39C]           
 08   98.7 [A55495D1] [7164613E]           
 09   97.4 [C4A1B6F0] [7B3021FA]           



Create a new paste based on this one


Comments: