[ create a new paste ] login | about

Link: http://codepad.org/960a8Ggi    [ raw code | fork ]

Plain Text, pasted on Jun 7:
Exact Audio Copy V1.0 beta 3 from 29. August 2011

EAC extraction logfile from 1. February 2014, 14:15

John Mellencamp / Life, Death, Love And Freedom

Used drive  : PLEXTOR BD-R  PX-B950SA   Adapter: 6  ID: 0

Read mode               : Secure
Utilize accurate stream : Yes
Defeat audio cache      : Yes
Make use of C2 pointers : No

Read offset correction                      : 6
Overread into Lead-In and Lead-Out          : No
Fill up missing offset samples with silence : Yes
Delete leading and trailing silent blocks   : No
Null samples used in CRC calculations       : Yes
Used interface                              : Native Win32 interface for Win NT & 2000

Used output format : Internal WAV Routines
Sample format      : 44.100 Hz; 16 Bit; Stereo


TOC of the extracted CD

     Track |   Start  |  Length  | Start sector | End sector 
    ---------------------------------------------------------
        1  |  0:00.00 |  3:10.53 |         0    |    14302   
        2  |  3:10.53 |  3:27.20 |     14303    |    29847   
        3  |  6:37.73 |  3:47.50 |     29848    |    46922   
        4  | 10:25.48 |  3:25.01 |     46923    |    62298   
        5  | 13:50.49 |  2:51.55 |     62299    |    75178   
        6  | 16:42.29 |  3:54.54 |     75179    |    92782   
        7  | 20:37.08 |  3:27.55 |     92783    |   108362   
        8  | 24:04.63 |  3:13.34 |    108363    |   122871   
        9  | 27:18.22 |  3:41.72 |    122872    |   139518   
       10  | 31:00.19 |  3:42.50 |    139519    |   156218   
       11  | 34:42.69 |  2:35.34 |    156219    |   167877   
       12  | 37:18.28 |  3:44.03 |    167878    |   184680   
       13  | 41:02.31 |  4:38.48 |    184681    |   205578   
       14  | 45:41.04 |  3:57.64 |    205579    |   223417   


Range status and errors

Selected range

     Filename C:\John Mellencamp\2013 John Mellencamp 1978-2012 (19CD Box Set Mercury Records)\2008 Life, Death, Love And Freedom\John Mellencamp - Life, Death, Love And Freedom.wav

     Peak level 97.7 %
     Extraction speed 7.8 X
     Range quality 100.0 %
     Test CRC 6F0E2175
     Copy CRC 6F0E2175
     Copy OK

No errors occurred

 
AccurateRip summary
 
Track  1  accurately ripped (confidence 72)  [BE5D43D4]  (AR v2)
Track  2  accurately ripped (confidence 72)  [6B994657]  (AR v2)
Track  3  accurately ripped (confidence 72)  [D89A00C8]  (AR v2)
Track  4  accurately ripped (confidence 72)  [5A31215D]  (AR v2)
Track  5  accurately ripped (confidence 73)  [04711EB8]  (AR v2)
Track  6  accurately ripped (confidence 72)  [D5DFEE8E]  (AR v2)
Track  7  accurately ripped (confidence 72)  [C3913CC2]  (AR v2)
Track  8  accurately ripped (confidence 70)  [E126FA07]  (AR v2)
Track  9  accurately ripped (confidence 74)  [AC21D5E9]  (AR v2)
Track 10  accurately ripped (confidence 73)  [961DDAA0]  (AR v2)
Track 11  accurately ripped (confidence 74)  [3219B12D]  (AR v2)
Track 12  accurately ripped (confidence 71)  [CD4576E0]  (AR v2)
Track 13  accurately ripped (confidence 74)  [F1C12160]  (AR v2)
Track 14  accurately ripped (confidence 74)  [360FA1B8]  (AR v2)
 
All tracks accurately ripped

End of status report

==== Log checksum 30B20249A7366EE8F828FDCB12DDD352D098F7462EC3A42F0CA5F0700EC2E035 ====



Create a new paste based on this one


Comments: