[ create a new paste ] login | about

Link: http://codepad.org/9E6sAHd5    [ raw code | fork ]

Plain Text, pasted on Nov 4:
Disc Title:     Eagles: Live From The Forum: MMXVIII
Disc Label:     Eagles - Live from the Forum MMXVIII
Disc Size:      44,863,824,418 bytes
Protection:     AACS
Extras:         BD-Java
BDInfo:         0.7.5.5

Notes:          

BDINFO HOME:
  Cinema Squid (old)
    http://www.cinemasquid.com/blu-ray/tools/bdinfo
  UniqProject GitHub (new)
   https://github.com/UniqProject/BDInfo

INCLUDES FORUMS REPORT FOR:
  AVS Forum Blu-ray Audio and Video Specifications Thread
    http://www.avsforum.com/avs-vb/showthread.php?t=1155731


********************
PLAYLIST: 00002.MPLS
********************

<--- BEGIN FORUMS PASTE --->
[code]
                                                                                                                Total   Video                                             
Title                                                           Codec   Length  Movie Size      Disc Size       Bitrate Bitrate Main Audio Track                          Secondary Audio Track
-----                                                           ------  ------- --------------  --------------  ------- ------- ------------------                        ---------------------
00002.MPLS                                                      AVC     2:25:16 44,790,500,736  44,863,824,418  41.11   32.42   LPCM 2.0 2304Kbps (48kHz/24-bit)          DTS-HD Master 5.1 4310Kbps (48kHz/24-bit)
[/code]

[code]

DISC INFO:

Disc Title:     Eagles: Live From The Forum: MMXVIII
Disc Label:     Eagles - Live from the Forum MMXVIII
Disc Size:      44,863,824,418 bytes
Protection:     AACS
Extras:         BD-Java
BDInfo:         0.7.5.5

PLAYLIST REPORT:

Name:                   00002.MPLS
Length:                 2:25:16.249 (h:m:s.ms)
Size:                   44,790,500,736 bytes
Total Bitrate:          41.11 Mbps

VIDEO:

Codec                   Bitrate             Description     
-----                   -------             -----------     
MPEG-4 AVC Video        32416 kbps          1080p / 23.976 fps / 16:9 / High Profile 4.1

AUDIO:

Codec                           Language        Bitrate         Description     
-----                           --------        -------         -----------     
LPCM Audio                      English         2304 kbps       2.0 / 48 kHz /  2304 kbps / 24-bit
DTS-HD Master Audio             English         4310 kbps       5.1 / 48 kHz /  4310 kbps / 24-bit (DTS Core: 5.1 / 48 kHz /  1509 kbps / 24-bit)

FILES:

Name            Time In         Length          Size            Total Bitrate   
----            -------         ------          ----            -------------   
00002.M2TS      0:00:00.000     2:25:16.249     44,790,500,736  41,110          

CHAPTERS:

Number          Time In         Length          Avg Video Rate  Max 1-Sec Rate  Max 1-Sec Time  Max 5-Sec Rate  Max 5-Sec Time  Max 10Sec Rate  Max 10Sec Time  Avg Frame Size  Max Frame Size  Max Frame Time  
------          -------         ------          --------------  --------------  --------------  --------------  --------------  --------------  --------------  --------------  --------------  --------------  
1               0:00:00.000     2:25:16.249     32,416 kbps     53,492 kbps     01:01:55.670    40,471 kbps     00:15:50.908    38,708 kbps     01:23:30.296    169,002 bytes   748,597 bytes   01:01:55.878    

STREAM DIAGNOSTICS:

File            PID             Type            Codec           Language                Seconds                 Bitrate                 Bytes           Packets         
----            ---             ----            -----           --------                --------------          --------------          -------------   -----           
00002.M2TS      4113 (0x1011)   0x1B            AVC                                     8716.166                32,416                  35,317,963,898  192,069,662     
00002.M2TS      4352 (0x1100)   0x80            LPCM            eng (English)           8716.166                2,310                   2,517,251,372   13,945,998      
00002.M2TS      4353 (0x1101)   0x86            DTS-HD MA       eng (English)           8716.166                4,310                   4,696,098,119   26,880,885      

[/code]
<---- END FORUMS PASTE ---->

QUICK SUMMARY:

Disc Title: Eagles: Live From The Forum: MMXVIII
Disc Label: Eagles - Live from the Forum MMXVIII
Disc Size: 44,863,824,418 bytes
Protection: AACS
Playlist: 00002.MPLS
Size: 44,790,500,736 bytes
Length: 2:25:16.249
Total Bitrate: 41.11 Mbps
Video: MPEG-4 AVC Video / 32416 kbps / 1080p / 23.976 fps / 16:9 / High Profile 4.1
Audio: English / LPCM Audio / 2.0 / 48 kHz /  2304 kbps / 24-bit
Audio: English / DTS-HD Master Audio / 5.1 / 48 kHz /  4310 kbps / 24-bit (DTS Core: 5.1 / 48 kHz /  1509 kbps / 24-bit)


********************
PLAYLIST: 01002.MPLS
********************

<--- BEGIN FORUMS PASTE --->
[code]
                                                                                                                Total   Video                                             
Title                                                           Codec   Length  Movie Size      Disc Size       Bitrate Bitrate Main Audio Track                          Secondary Audio Track
-----                                                           ------  ------- --------------  --------------  ------- ------- ------------------                        ---------------------
01002.MPLS                                                      AVC     2:25:16 44,790,500,736  44,863,824,418  41.11   32.42   LPCM 2.0 2304Kbps (48kHz/24-bit)          DTS-HD Master 5.1 4310Kbps (48kHz/24-bit)
[/code]

[code]

DISC INFO:

Disc Title:     Eagles: Live From The Forum: MMXVIII
Disc Label:     Eagles - Live from the Forum MMXVIII
Disc Size:      44,863,824,418 bytes
Protection:     AACS
Extras:         BD-Java
BDInfo:         0.7.5.5

PLAYLIST REPORT:

Name:                   01002.MPLS
Length:                 2:25:16.249 (h:m:s.ms)
Size:                   44,790,500,736 bytes
Total Bitrate:          41.11 Mbps

VIDEO:

Codec                   Bitrate             Description     
-----                   -------             -----------     
MPEG-4 AVC Video        32416 kbps          1080p / 23.976 fps / 16:9 / High Profile 4.1

AUDIO:

Codec                           Language        Bitrate         Description     
-----                           --------        -------         -----------     
LPCM Audio                      English         2304 kbps       2.0 / 48 kHz /  2304 kbps / 24-bit
DTS-HD Master Audio             English         4310 kbps       5.1 / 48 kHz /  4310 kbps / 24-bit (DTS Core: 5.1 / 48 kHz /  1509 kbps / 24-bit)

FILES:

Name            Time In         Length          Size            Total Bitrate   
----            -------         ------          ----            -------------   
00002.M2TS      0:00:00.000     2:25:16.249     44,790,500,736  41,110          

CHAPTERS:

Number          Time In         Length          Avg Video Rate  Max 1-Sec Rate  Max 1-Sec Time  Max 5-Sec Rate  Max 5-Sec Time  Max 10Sec Rate  Max 10Sec Time  Avg Frame Size  Max Frame Size  Max Frame Time  
------          -------         ------          --------------  --------------  --------------  --------------  --------------  --------------  --------------  --------------  --------------  --------------  
1               0:00:00.000     0:01:29.464     32,285 kbps     50,158 kbps     00:00:58.058    39,676 kbps     00:01:07.901    38,153 kbps     00:01:15.533    168,238 bytes   638,146 bytes   00:00:36.411    
2               0:01:29.464     0:03:32.503     32,761 kbps     47,305 kbps     00:04:10.333    39,767 kbps     00:04:09.707    38,488 kbps     00:04:35.483    170,801 bytes   629,685 bytes   00:03:30.043    
3               0:05:01.968     0:00:35.285     34,088 kbps     44,512 kbps     00:05:35.335    38,752 kbps     00:05:24.907    37,154 kbps     00:05:19.902    177,718 bytes   466,652 bytes   00:05:31.914    
4               0:05:37.253     0:04:18.716     33,858 kbps     44,961 kbps     00:06:55.456    38,897 kbps     00:07:53.806    37,900 kbps     00:09:17.431    176,518 bytes   605,624 bytes   00:05:48.097    
5               0:09:55.970     0:04:21.010     33,745 kbps     46,753 kbps     00:14:11.934    39,161 kbps     00:10:48.522    38,215 kbps     00:13:44.782    175,931 bytes   661,434 bytes   00:13:57.920    
6               0:14:16.981     0:02:12.465     32,075 kbps     49,110 kbps     00:15:51.241    40,471 kbps     00:15:50.908    37,121 kbps     00:14:32.121    167,222 bytes   629,045 bytes   00:15:51.283    
7               0:16:29.446     0:04:25.139     32,302 kbps     44,635 kbps     00:18:07.336    39,415 kbps     00:20:48.914    36,639 kbps     00:20:44.576    168,410 bytes   458,155 bytes   00:19:40.220    
8               0:20:54.586     0:03:04.893     34,495 kbps     46,242 kbps     00:21:43.844    38,980 kbps     00:22:50.494    37,814 kbps     00:22:50.702    179,842 bytes   507,635 bytes   00:23:02.255    
9               0:23:59.479     0:05:51.851     35,404 kbps     48,934 kbps     00:28:59.487    39,408 kbps     00:25:08.215    37,859 kbps     00:28:59.404    184,579 bytes   627,688 bytes   00:24:15.829    
10              0:29:51.331     0:00:48.506     35,492 kbps     43,113 kbps     00:30:17.857    38,037 kbps     00:29:54.167    36,907 kbps     00:30:21.861    185,041 bytes   553,670 bytes   00:30:24.405    
11              0:30:39.838     0:05:05.972     32,273 kbps     49,391 kbps     00:34:31.527    38,883 kbps     00:31:24.924    38,062 kbps     00:31:28.094    168,257 bytes   529,686 bytes   00:32:42.585    
12              0:35:45.810     0:05:09.142     33,129 kbps     42,756 kbps     00:36:53.794    38,633 kbps     00:36:49.707    37,140 kbps     00:40:09.198    172,717 bytes   538,649 bytes   00:36:00.241    
13              0:40:54.952     0:01:32.300     25,215 kbps     39,589 kbps     00:42:12.029    36,805 kbps     00:42:08.150    32,807 kbps     00:41:13.971    131,458 bytes   475,510 bytes   00:42:06.857    
14              0:42:27.253     0:03:20.450     30,942 kbps     42,645 kbps     00:42:51.360    37,907 kbps     00:44:26.205    35,323 kbps     00:42:40.766    161,318 bytes   451,468 bytes   00:43:11.046    
15              0:45:47.703     0:00:38.371     33,554 kbps     43,664 kbps     00:45:52.207    37,192 kbps     00:46:04.136    36,594 kbps     00:45:57.171    174,935 bytes   592,591 bytes   00:46:15.689    
16              0:46:26.074     0:04:42.198     33,080 kbps     44,104 kbps     00:50:00.872    39,952 kbps     00:48:39.791    38,192 kbps     00:48:35.078    172,466 bytes   517,959 bytes   00:49:39.101    
17              0:51:08.273     0:04:19.759     29,980 kbps     41,941 kbps     00:54:08.245    37,160 kbps     00:55:06.720    36,843 kbps     00:54:02.364    156,303 bytes   529,181 bytes   00:55:16.896    
18              0:55:28.033     0:08:59.413     33,959 kbps     53,492 kbps     01:01:55.670    40,101 kbps     01:03:34.310    38,525 kbps     01:03:29.347    177,047 bytes   748,597 bytes   01:01:55.878    
19              1:04:27.446     0:04:14.337     34,188 kbps     48,748 kbps     01:07:20.244    39,058 kbps     01:05:40.102    37,812 kbps     01:05:06.110    178,241 bytes   578,483 bytes   01:05:08.112    
20              1:08:41.784     0:00:33.908     32,209 kbps     44,632 kbps     01:08:41.826    37,369 kbps     01:09:00.386    36,404 kbps     01:09:00.761    167,921 bytes   454,672 bytes   01:08:45.037    
21              1:09:15.693     0:05:21.279     34,393 kbps     48,892 kbps     01:13:11.011    39,741 kbps     01:13:48.382    38,479 kbps     01:09:46.640    179,309 bytes   544,580 bytes   01:13:11.053    
22              1:14:36.972     0:05:08.182     31,752 kbps     45,606 kbps     01:17:26.933    37,934 kbps     01:19:37.022    36,412 kbps     01:17:54.169    165,541 bytes   570,512 bytes   01:19:39.608    
23              1:19:45.155     0:04:23.680     36,510 kbps     49,458 kbps     01:20:55.225    39,513 kbps     01:23:10.568    38,708 kbps     01:23:30.296    190,348 bytes   652,276 bytes   01:24:00.410    
24              1:24:08.835     0:03:58.863     35,571 kbps     50,610 kbps     01:27:41.047    39,869 kbps     01:27:28.117    38,276 kbps     01:27:26.741    185,449 bytes   683,171 bytes   01:24:47.707    
25              1:28:07.699     0:01:55.114     32,568 kbps     46,035 kbps     01:28:45.403    38,280 kbps     01:28:54.078    37,580 kbps     01:28:25.133    169,796 bytes   532,375 bytes   01:29:14.807    
26              1:30:02.814     0:08:04.150     35,695 kbps     47,277 kbps     01:34:27.244    39,446 kbps     01:32:08.272    38,327 kbps     01:36:52.515    186,099 bytes   633,274 bytes   01:37:59.331    
27              1:38:06.964     0:05:09.684     35,161 kbps     52,500 kbps     01:40:43.120    40,087 kbps     01:40:35.320    38,546 kbps     01:39:31.006    183,312 bytes   564,974 bytes   01:40:43.162    
28              1:43:16.648     0:04:33.815     35,487 kbps     50,290 kbps     01:46:10.530    40,149 kbps     01:46:00.354    38,531 kbps     01:45:54.848    185,011 bytes   629,202 bytes   01:44:14.206    
29              1:47:50.464     0:04:41.072     36,064 kbps     49,460 kbps     01:49:29.396    39,289 kbps     01:51:04.991    38,053 kbps     01:48:08.690    188,023 bytes   643,608 bytes   01:49:59.843    
30              1:52:31.536     0:07:01.129     35,057 kbps     49,431 kbps     01:52:35.331    39,532 kbps     01:54:31.948    38,210 kbps     01:55:28.963    182,772 bytes   631,513 bytes   01:58:52.458    
31              1:59:32.665     0:09:33.072     30,341 kbps     47,861 kbps     02:08:17.981    39,528 kbps     02:06:13.941    38,112 kbps     02:06:13.941    158,185 bytes   630,073 bytes   02:08:18.023    
32              2:09:05.738     0:06:31.057     36,282 kbps     46,751 kbps     02:14:31.229    39,561 kbps     02:14:10.250    38,547 kbps     02:11:40.267    189,158 bytes   626,376 bytes   02:11:44.146    
33              2:15:36.795     0:04:59.924     26,806 kbps     39,611 kbps     02:18:46.568    37,099 kbps     02:15:36.837    35,548 kbps     02:15:36.795    139,754 bytes   442,221 bytes   02:18:44.024    
34              2:20:36.719     0:04:39.529     1,003 kbps      2,149 kbps      02:22:37.131    2,013 kbps      02:22:36.506    1,921 kbps      02:22:34.003    5,232 bytes     143,762 bytes   02:24:44.133    

STREAM DIAGNOSTICS:

File            PID             Type            Codec           Language                Seconds                 Bitrate                 Bytes           Packets         
----            ---             ----            -----           --------                --------------          --------------          -------------   -----           
00002.M2TS      4113 (0x1011)   0x1B            AVC                                     8716.166                32,416                  35,317,963,898  192,069,662     
00002.M2TS      4352 (0x1100)   0x80            LPCM            eng (English)           8716.166                2,310                   2,517,251,372   13,945,998      
00002.M2TS      4353 (0x1101)   0x86            DTS-HD MA       eng (English)           8716.166                4,310                   4,696,098,119   26,880,885      

[/code]
<---- END FORUMS PASTE ---->

QUICK SUMMARY:

Disc Title: Eagles: Live From The Forum: MMXVIII
Disc Label: Eagles - Live from the Forum MMXVIII
Disc Size: 44,863,824,418 bytes
Protection: AACS
Playlist: 01002.MPLS
Size: 44,790,500,736 bytes
Length: 2:25:16.249
Total Bitrate: 41.11 Mbps
Video: MPEG-4 AVC Video / 32416 kbps / 1080p / 23.976 fps / 16:9 / High Profile 4.1
Audio: English / LPCM Audio / 2.0 / 48 kHz /  2304 kbps / 24-bit
Audio: English / DTS-HD Master Audio / 5.1 / 48 kHz /  4310 kbps / 24-bit (DTS Core: 5.1 / 48 kHz /  1509 kbps / 24-bit)


********************
PLAYLIST: 00001.MPLS
********************

<--- BEGIN FORUMS PASTE --->
[code]
                                                                                                                Total   Video                                             
Title                                                           Codec   Length  Movie Size      Disc Size       Bitrate Bitrate Main Audio Track                          Secondary Audio Track
-----                                                           ------  ------- --------------  --------------  ------- ------- ------------------                        ---------------------
00001.MPLS                                                      AVC     0:00:30 59,494,464      44,863,824,418  15.85   10.93   LPCM 2.0 2304Kbps (48kHz/24-bit)          DTS-HD Master 5.1 1559Kbps (48kHz/24-bit)
[/code]

[code]

DISC INFO:

Disc Title:     Eagles: Live From The Forum: MMXVIII
Disc Label:     Eagles - Live from the Forum MMXVIII
Disc Size:      44,863,824,418 bytes
Protection:     AACS
Extras:         BD-Java
BDInfo:         0.7.5.5

PLAYLIST REPORT:

Name:                   00001.MPLS
Length:                 0:00:30.030 (h:m:s.ms)
Size:                   59,494,464 bytes
Total Bitrate:          15.85 Mbps

VIDEO:

Codec                   Bitrate             Description     
-----                   -------             -----------     
MPEG-4 AVC Video        10935 kbps          1080p / 23.976 fps / 16:9 / High Profile 4.1

AUDIO:

Codec                           Language        Bitrate         Description     
-----                           --------        -------         -----------     
LPCM Audio                      English         2304 kbps       2.0 / 48 kHz /  2304 kbps / 24-bit
DTS-HD Master Audio             English         1559 kbps       5.1 / 48 kHz /  1559 kbps / 24-bit (DTS Core: 5.1 / 48 kHz /  1509 kbps / 24-bit)

FILES:

Name            Time In         Length          Size            Total Bitrate   
----            -------         ------          ----            -------------   
00001.M2TS      0:00:00.000     0:00:30.030     59,494,464      15,827          

CHAPTERS:

Number          Time In         Length          Avg Video Rate  Max 1-Sec Rate  Max 1-Sec Time  Max 5-Sec Rate  Max 5-Sec Time  Max 10Sec Rate  Max 10Sec Time  Avg Frame Size  Max Frame Size  Max Frame Time  
------          -------         ------          --------------  --------------  --------------  --------------  --------------  --------------  --------------  --------------  --------------  --------------  
1               0:00:00.000     0:00:30.030     10,950 kbps     12,916 kbps     00:00:00.125    11,834 kbps     00:00:00.125    11,439 kbps     00:00:00.000    57,168 bytes    785,439 bytes   00:00:13.972    

STREAM DIAGNOSTICS:

File            PID             Type            Codec           Language                Seconds                 Bitrate                 Bytes           Packets         
----            ---             ----            -----           --------                --------------          --------------          -------------   -----           
00001.M2TS      4113 (0x1011)   0x1B            AVC                                     29.905                  11,178                  41,782,906      227,515         
00001.M2TS      4352 (0x1100)   0x80            LPCM            eng (English)           29.905                  2,320                   8,672,664       48,048          
00001.M2TS      4353 (0x1101)   0x86            DTS-HD MA       eng (English)           29.905                  1,568                   5,861,440       36,634          

[/code]
<---- END FORUMS PASTE ---->

QUICK SUMMARY:

Disc Title: Eagles: Live From The Forum: MMXVIII
Disc Label: Eagles - Live from the Forum MMXVIII
Disc Size: 44,863,824,418 bytes
Protection: AACS
Playlist: 00001.MPLS
Size: 59,494,464 bytes
Length: 0:00:30.030
Total Bitrate: 15.85 Mbps
Video: MPEG-4 AVC Video / 10935 kbps / 1080p / 23.976 fps / 16:9 / High Profile 4.1
Audio: English / LPCM Audio / 2.0 / 48 kHz /  2304 kbps / 24-bit
Audio: English / DTS-HD Master Audio / 5.1 / 48 kHz /  1559 kbps / 24-bit (DTS Core: 5.1 / 48 kHz /  1509 kbps / 24-bit)


********************
PLAYLIST: 01001.MPLS
********************

<--- BEGIN FORUMS PASTE --->
[code]
                                                                                                                Total   Video                                             
Title                                                           Codec   Length  Movie Size      Disc Size       Bitrate Bitrate Main Audio Track                          Secondary Audio Track
-----                                                           ------  ------- --------------  --------------  ------- ------- ------------------                        ---------------------
01001.MPLS                                                      AVC     0:00:30 59,494,464      44,863,824,418  15.85   10.93   LPCM 2.0 2304Kbps (48kHz/24-bit)          DTS-HD Master 5.1 1559Kbps (48kHz/24-bit)
[/code]

[code]

DISC INFO:

Disc Title:     Eagles: Live From The Forum: MMXVIII
Disc Label:     Eagles - Live from the Forum MMXVIII
Disc Size:      44,863,824,418 bytes
Protection:     AACS
Extras:         BD-Java
BDInfo:         0.7.5.5

PLAYLIST REPORT:

Name:                   01001.MPLS
Length:                 0:00:30.030 (h:m:s.ms)
Size:                   59,494,464 bytes
Total Bitrate:          15.85 Mbps

VIDEO:

Codec                   Bitrate             Description     
-----                   -------             -----------     
MPEG-4 AVC Video        10935 kbps          1080p / 23.976 fps / 16:9 / High Profile 4.1

AUDIO:

Codec                           Language        Bitrate         Description     
-----                           --------        -------         -----------     
LPCM Audio                      English         2304 kbps       2.0 / 48 kHz /  2304 kbps / 24-bit
DTS-HD Master Audio             English         1559 kbps       5.1 / 48 kHz /  1559 kbps / 24-bit (DTS Core: 5.1 / 48 kHz /  1509 kbps / 24-bit)

FILES:

Name            Time In         Length          Size            Total Bitrate   
----            -------         ------          ----            -------------   
00001.M2TS      0:00:00.000     0:00:30.030     59,494,464      15,827          

CHAPTERS:

Number          Time In         Length          Avg Video Rate  Max 1-Sec Rate  Max 1-Sec Time  Max 5-Sec Rate  Max 5-Sec Time  Max 10Sec Rate  Max 10Sec Time  Avg Frame Size  Max Frame Size  Max Frame Time  
------          -------         ------          --------------  --------------  --------------  --------------  --------------  --------------  --------------  --------------  --------------  --------------  
1               0:00:00.000     0:00:00.125     6,534 kbps      0 kbps          00:00:00.000    0 kbps          00:00:00.000    0 kbps          00:00:00.000    25,551 bytes    88,606 bytes    00:00:00.000    
2               0:00:00.125     0:00:28.820     10,998 kbps     12,916 kbps     00:00:00.125    11,834 kbps     00:00:00.125    11,438 kbps     00:00:00.125    57,338 bytes    785,439 bytes   00:00:13.972    
3               0:00:28.945     0:00:01.084     10,187 kbps     10,595 kbps     00:00:28.945    0 kbps          00:00:00.000    0 kbps          00:00:00.000    57,537 bytes    779,577 bytes   00:00:28.987    

STREAM DIAGNOSTICS:

File            PID             Type            Codec           Language                Seconds                 Bitrate                 Bytes           Packets         
----            ---             ----            -----           --------                --------------          --------------          -------------   -----           
00001.M2TS      4113 (0x1011)   0x1B            AVC                                     29.905                  11,178                  41,782,906      227,515         
00001.M2TS      4352 (0x1100)   0x80            LPCM            eng (English)           29.905                  2,320                   8,672,664       48,048          
00001.M2TS      4353 (0x1101)   0x86            DTS-HD MA       eng (English)           29.905                  1,568                   5,861,440       36,634          

[/code]
<---- END FORUMS PASTE ---->

QUICK SUMMARY:

Disc Title: Eagles: Live From The Forum: MMXVIII
Disc Label: Eagles - Live from the Forum MMXVIII
Disc Size: 44,863,824,418 bytes
Protection: AACS
Playlist: 01001.MPLS
Size: 59,494,464 bytes
Length: 0:00:30.030
Total Bitrate: 15.85 Mbps
Video: MPEG-4 AVC Video / 10935 kbps / 1080p / 23.976 fps / 16:9 / High Profile 4.1
Audio: English / LPCM Audio / 2.0 / 48 kHz /  2304 kbps / 24-bit
Audio: English / DTS-HD Master Audio / 5.1 / 48 kHz /  1559 kbps / 24-bit (DTS Core: 5.1 / 48 kHz /  1509 kbps / 24-bit)




Create a new paste based on this one


Comments: