[ create a new paste ] login | about

Link: http://codepad.org/9Jgg5dQ5    [ raw code | fork ]

Plain Text, pasted on Mar 9:
[CUETools log; Date: 3/9/2018 9:54:49 AM; Version: 2.1.5]
[CTDB TOCID: GP_yh5p9.XPzuyJTpZTZRVPb3d4-] found.
Track | CTDB Status
  1   | (5/5) Accurately ripped
  2   | (5/5) Accurately ripped
  3   | (5/5) Accurately ripped
  4   | (5/5) Accurately ripped
  5   | (5/5) Accurately ripped
  6   | (5/5) Accurately ripped
  7   | (5/5) Accurately ripped
  8   | (5/5) Accurately ripped
  9   | (5/5) Accurately ripped
 10   | (5/5) Accurately ripped
 11   | (5/5) Accurately ripped
 12   | (5/5) Accurately ripped
[AccurateRip ID: 00184382-00e46cb7-a20ce40c] found.
Track   [  CRC   |   V2   ] Status
 01     [2c235d79|60615906] (0+0/4) No match
 02     [f569706f|a83a083b] (0+0/4) No match
 03     [b184b131|8a5a4954] (0+0/4) No match
 04     [2ff2b638|45ede5a0] (0+0/4) No match
 05     [e6f28c62|22814112] (0+0/2) No match
 06     [05a16501|77e70da6] (0+0/4) No match
 07     [532386f6|f644d11c] (0+0/4) No match
 08     [171a65f1|240b6633] (0+0/4) No match
 09     [e0764677|50a1f3eb] (0+0/2) No match
 10     [442c502e|178df0db] (1+1/6) Accurately ripped
 11     [ea577149|02ab8da8] (0+0/3) No match
 12     [feb9303b|6460fff4] (0+0/5) No match
Offsetted by 666:
 01     [d7313a3d] (2/4) Accurately ripped
 02     [507f9d9b] (2/4) Accurately ripped
 03     [2df2b973] (2/4) Accurately ripped
 04     [e3c1613c] (2/4) Accurately ripped
 05     [fc378e54] (0/2) No match (V2 was not tested)
 06     [ee7da9bd] (2/4) Accurately ripped
 07     [c016e33d] (2/4) Accurately ripped
 08     [0f52ec7e] (2/4) Accurately ripped
 09     [4c50f525] (0/2) No match (V2 was not tested)
 10     [a819f84e] (1/6) Accurately ripped
 11     [81a19259] (0/3) No match (V2 was not tested)
 12     [65a669ec] (2/5) Accurately ripped

Track Peak [ CRC32  ] [W/O NULL] [  LOG   ]
 --   78.5 [A0231FBE] [F3BC72A3]           
 01   77.4 [0AFABE7A] [75EA3072]   CRC32   
 02   78.5 [DCA2A829] [344BDB66]   CRC32   
 03   72.2 [DEF0C1FE] [CC704DBC]   CRC32   
 04   70.8 [920C9F6A] [A1E74FC6]   CRC32   
 05   69.0 [730A0657] [27494CEF]   CRC32   
 06   66.9 [7DEF74AD] [8E264590]   CRC32   
 07   60.2 [15709CB6] [4E5655F9]   CRC32   
 08   72.2 [C35E1C14] [D8CD11AE]   CRC32   
 09   56.0 [67463C63] [284779BF]   CRC32   
 10   67.4 [E2F758F1] [8BC205EB]   CRC32   
 11   48.8 [580F50CD] [919E538C]   CRC32   
 12   54.0 [1FDE776D] [3A948152]   CRC32   



Create a new paste based on this one


Comments: