[ create a new paste ] login | about

Link: http://codepad.org/9NFGNGEB    [ raw code | fork ]

Plain Text, pasted on Jul 29:
Exact Audio Copy V1.3 from 2. September 2016

EAC extraction logfile from 23. July 2019, 17:42

Tangerine Dream / Phaedra Out-Takes 2

Used drive  : Optiarc DVD RW AD-7280S   Adapter: 1  ID: 0

Read mode               : Secure
Utilize accurate stream : Yes
Defeat audio cache      : Yes
Make use of C2 pointers : No

Read offset correction                      : 48
Overread into Lead-In and Lead-Out          : No
Fill up missing offset samples with silence : Yes
Delete leading and trailing silent blocks   : No
Null samples used in CRC calculations       : Yes
Used interface                              : Native Win32 interface for Win NT & 2000

Used output format : Internal WAV Routines
Sample format      : 44.100 Hz; 16 Bit; Stereo


TOC of the extracted CD

     Track |   Start  |  Length  | Start sector | End sector 
    ---------------------------------------------------------
        1  |  0:00.00 | 11:46.17 |         0    |    52966   
        2  | 11:46.17 |  5:44.26 |     52967    |    78792   
        3  | 17:30.43 | 13:05.01 |     78793    |   137668   
        4  | 30:35.44 |  9:20.34 |    137669    |   179702   
        5  | 39:56.03 |  5:49.63 |    179703    |   205940   


Range status and errors

Selected range

     Filename C:\Tangerine Dream\2019 In Search Of Hades (18-Disc Box Set Universal Music)\CD02-03 1973 Phaedra Out-Takes\Tangerine Dream - Phaedra Out-Takes 2.wav

     Peak level 99.2 %
     Extraction speed 3.7 X
     Range quality 100.0 %
     Test CRC CCDD97D2
     Copy CRC CCDD97D2
     Copy OK

No errors occurred

 
AccurateRip summary
 
Track  1  not present in database
Track  2  not present in database
Track  3  not present in database
Track  4  not present in database
Track  5  not present in database
 
None of the tracks are present in the AccurateRip database

End of status report

---- CUETools DB Plugin V2.1.6

[CTDB TOCID: Vv3uzlEH5OQ1LCHvciEwgFJxGmI-] found
Submit result: Vv3uzlEH5OQ1LCHvciEwgFJxGmI- has been confirmed
Track | CTDB Status
  1   | (79/79) Accurately ripped
  2   | (79/79) Accurately ripped
  3   | (79/79) Accurately ripped
  4   | (79/79) Accurately ripped
  5   | (78/79) Accurately ripped


==== Log checksum CAE211F526084E0059BB17CDF0E05CCB1BAF3AE752A0812BBACE17C31AE5A541 ====



Create a new paste based on this one


Comments: