[ create a new paste ] login | about

Link: http://codepad.org/9QjiN3V8    [ raw code | fork ]

Plain Text, pasted on Dec 9:
foobar2000 1.6 / Dynamic Range Meter 1.1.1
log date: 2020-12-09 05:52:10

--------------------------------------------------------------------------------
Analyzed: Henry Mancini / Six Hours Past Sunset & A Warm Shade Of Ivory
--------------------------------------------------------------------------------

DR         Peak         RMS     Duration Track
--------------------------------------------------------------------------------
DR11      -1.12 dB   -17.98 dB      2:24 01-Softly, as I Leave You  
DR12      -1.83 dB   -17.30 dB      2:11 02-Midnight Cowboy  
DR13      -2.47 dB   -20.81 dB      3:36 03-Traces 
DR12      -2.26 dB   -19.36 dB      2:41 04-Natalie  
DR12      -3.06 dB   -21.47 dB      2:31 05-Didnt We  
DR12      -3.65 dB   -21.59 dB      3:04 06-Two for the Road  
DR13      -2.09 dB   -20.21 dB      2:31 07-Six Hours Past Sunset  
DR13      -3.11 dB   -20.66 dB      2:44 08-Theme from The Fox  
DR13      -2.91 dB   -20.64 dB      2:34 09-Quentins Theme  
DR13      -2.90 dB   -21.45 dB      3:09 10-Girl Talk   
DR12      -1.71 dB   -18.51 dB      2:59 11-Moonlight Sonata  
DR11      -4.74 dB   -21.20 dB      2:50 12-In the Wee Small Hours of the Morning  
DR13      -4.59 dB   -19.81 dB      3:10 13-Cycles  
DR11      -4.08 dB   -20.79 dB      2:57 14-Moment to Moment   
DR12      -4.15 dB   -20.74 dB      3:37 15-A Day in the Life of a Fool   
DR11      -5.59 dB   -20.50 dB      3:25 16-Watch What Happens   
DR10      -5.26 dB   -20.41 dB      3:22 17-By the Time I Get to Phoenix   
DR11      -5.25 dB   -20.50 dB      2:38 18-Love Theme from Romeo & Juliet   
DR11      -4.50 dB   -19.23 dB      3:02 19-The Windmills of Your Mind   
DR13      -4.84 dB   -21.22 dB      2:41 20-When I Look in Your Eyes   
DR11      -4.76 dB   -19.96 dB      3:11 21-Meditation  
DR12      -4.56 dB   -21.23 dB      3:21 22-Dream a Little Dream of Me  
--------------------------------------------------------------------------------

Number of tracks:  22
Official DR value: DR12

Samplerate:        88200 Hz
Channels:          6
Bits per sample:   24
Bitrate:           6412 kbps
Codec:             FLAC
================================================================================




Create a new paste based on this one


Comments: