[ create a new paste ] login | about

Link: http://codepad.org/9TQmhdPE    [ raw code | fork ]

Plain Text, pasted on Jul 23:
foobar2000 1.3.8 / Dynamic Range Meter 1.1.1
log date: 2015-11-02 11:46:22

--------------------------------------------------------------------------------
Analyzed: The Band / Stage Fright (2014 SHM-SACD)
--------------------------------------------------------------------------------

DR         Peak         RMS     Duration Track
--------------------------------------------------------------------------------
DR15      -2.75 dB   -19.43 dB      2:37 01-Strawberry Wine
DR13      -4.04 dB   -21.91 dB      3:17 02-Sleeping
DR15      -4.93 dB   -21.28 dB      3:28 03-Time To Kill
DR13      -0.92 dB   -15.68 dB      3:54 04-Just Another Whistle Stop
DR13      -0.85 dB   -17.28 dB      3:36 05-All La Glory
DR13      -0.70 dB   -15.63 dB      4:02 06-The Shape I'm In
DR14      -4.34 dB   -20.34 dB      3:04 07-The W.S. Walcott Medicine Show
DR12      -4.56 dB   -19.54 dB      4:14 08-Daniel And The Sacred Harp
DR14      -4.76 dB   -21.23 dB      3:44 09-Stage Fright
DR13      -0.63 dB   -16.08 dB      4:17 10-The Rumor
--------------------------------------------------------------------------------

Number of tracks:  10
Official DR value: DR13

Samplerate:        88200 Hz
Channels:          2
Bits per sample:   24
Bitrate:           2561 kbps
Codec:             FLAC
================================================================================




Create a new paste based on this one


Comments: