[ create a new paste ] login | about

Link: http://codepad.org/9U8ZYtbM    [ raw code | fork ]

Plain Text, pasted on Dec 29:
[CUETools log; Date: 12/29/2016 1:22:08 PM; Version: 2.1.5]
[CTDB TOCID: Dnv9kvkKb1Nb4R28Tfte5Vm5AA4-] found.
Track | CTDB Status
  1   | (114/115) Accurately ripped
  2   | (114/115) Accurately ripped
  3   | (114/115) Accurately ripped
  4   | (114/115) Accurately ripped
  5   | (113/115) Accurately ripped
  6   | (113/115) Accurately ripped
  7   | (112/115) Accurately ripped
  8   | (114/115) Accurately ripped
  9   | (114/115) Accurately ripped
 10   | (114/115) Accurately ripped
 11   | (114/115) Accurately ripped
 12   | (113/115) Accurately ripped
 13   | (114/115) Accurately ripped
 14   | (113/115) Accurately ripped
 15   | (114/115) Accurately ripped
 16   | (114/115) Accurately ripped
 17   | (110/115) Accurately ripped
 18   | (113/115) Accurately ripped
 19   | (114/115) Accurately ripped
 20   | (112/115) Accurately ripped
 21   | (110/115) Accurately ripped
[AccurateRip ID: 003907d3-036e5877-4a11ed15] found.
Track   [  CRC   |   V2   ] Status
 01     [40043e3f|d1878a26] (011+007/186) Accurately ripped
 02     [de36a8a6|ad7c979d] (011+008/183) Accurately ripped
 03     [794af500|d5186daa] (013+008/186) Accurately ripped
 04     [fadb860a|ac4a097d] (012+008/184) Accurately ripped
 05     [79f1dc46|d4c380e4] (014+008/188) Accurately ripped
 06     [c27cb0ce|7336b8d4] (012+008/189) Accurately ripped
 07     [eefb9d0b|1c563859] (012+008/187) Accurately ripped
 08     [cfcab425|575c40c3] (012+008/182) Accurately ripped
 09     [beae97f3|ad0212ef] (014+008/183) Accurately ripped
 10     [e61ec5c2|ff633436] (014+008/186) Accurately ripped
 11     [9c725e21|e26e30d6] (013+008/183) Accurately ripped
 12     [b3230032|a262e921] (012+008/179) Accurately ripped
 13     [56b8d3e4|cadf3ca9] (014+008/180) Accurately ripped
 14     [7e839139|2b5d0fa3] (013+008/181) Accurately ripped
 15     [1cb48066|f2d495b5] (012+008/182) Accurately ripped
 16     [4402001c|ced9864f] (011+008/177) Accurately ripped
 17     [1c5a22ac|9531efd7] (013+008/181) Accurately ripped
 18     [94c71edb|fa37f1ea] (012+008/178) Accurately ripped
 19     [aeb500b4|bb56dd42] (013+008/172) Accurately ripped
 20     [fb383360|4cc2924a] (011+008/174) Accurately ripped
 21     [6b7e7f92|00a4a083] (012+007/170) Accurately ripped
Offsetted by 2740:
 01     [a6eab513] (078/186) Accurately ripped
 02     [9aabd7aa] (078/183) Accurately ripped
 03     [d85d0374] (078/186) Accurately ripped
 04     [b39f11e2] (078/184) Accurately ripped
 05     [0abec2f2] (079/188) Accurately ripped
 06     [dec20982] (080/189) Accurately ripped
 07     [76bd9bb7] (080/187) Accurately ripped
 08     [883d8da1] (078/182) Accurately ripped
 09     [0df9e243] (075/183) Accurately ripped
 10     [875903f6] (078/186) Accurately ripped
 11     [80a84609] (077/183) Accurately ripped
 12     [1c3e7d6e] (074/179) Accurately ripped
 13     [07f7056c] (073/180) Accurately ripped
 14     [50fec3a5] (075/181) Accurately ripped
 15     [2b8fb7a2] (076/182) Accurately ripped
 16     [d659b268] (075/177) Accurately ripped
 17     [80c13450] (075/181) Accurately ripped
 18     [80446d1f] (074/178) Accurately ripped
 19     [d8ba0e78] (069/172) Accurately ripped
 20     [1d247cbc] (076/174) Accurately ripped
 21     [8b950cd6] (071/170) Accurately ripped
Offsetted by -664:
 01     [2f4d53e7] (000/186) No match (V2 was not tested)
 02     [ddc38eae] (000/183) No match (V2 was not tested)
 03     [09ae79e8] (000/186) No match (V2 was not tested)
 04     [d70d4dba] (000/184) No match (V2 was not tested)
 05     [0dfa819e] (000/188) No match (V2 was not tested)
 06     [4d634a36] (000/189) No match (V2 was not tested)
 07     [561e7263] (000/187) No match (V2 was not tested)
 08     [3faedf1d] (000/182) No match (V2 was not tested)
 09     [8af3cc93] (000/183) No match (V2 was not tested)
 10     [0aea2a2a] (000/186) No match (V2 was not tested)
 11     [7952fdf1] (000/183) No match (V2 was not tested)
 12     [f7d7f2aa] (000/179) No match (V2 was not tested)
 13     [b01146f4] (000/180) No match (V2 was not tested)
 14     [31b84e11] (000/181) No match (V2 was not tested)
 15     [cd9ce6de] (000/182) No match (V2 was not tested)
 16     [44cb7cb4] (000/177) No match (V2 was not tested)
 17     [05840df4] (000/181) No match (V2 was not tested)
 18     [43cac363] (000/178) No match (V2 was not tested)
 19     [b5b7243c] (000/172) No match (V2 was not tested)
 20     [53cafe18] (000/174) No match (V2 was not tested)
 21     [4512a21a] (000/170) No match (V2 was not tested)
Offsetted by 6:
 01     [0bbbdf35] (000/186) No match
 02     [fdd50004] (000/183) No match (V2 was not tested)
 03     [a9566526] (000/186) No match (V2 was not tested)
 04     [5940db5e] (000/184) No match
 05     [ae954090] (000/188) No match
 06     [59e819d4] (000/189) No match
 07     [1625b555] (000/187) No match
 08     [b3caf487] (000/182) No match
 09     [da232c4b] (000/183) No match
 10     [fc263008] (000/186) No match
 11     [906d40ed] (000/183) No match
 12     [4e4660b4] (000/179) No match
 13     [217b1ce0] (000/180) No match
 14     [40c001a3] (000/181) No match
 15     [d04fb3e8] (000/182) No match
 16     [858af996] (000/177) No match
 17     [c1920bba] (000/181) No match
 18     [c5511c99] (000/178) No match
 19     [d84842b2] (000/172) No match
 20     [16f304d2] (000/174) No match
 21     [f51825d0] (000/170) No match

Track Peak [ CRC32  ] [W/O NULL] [  LOG   ]
 --   99.9 [FFE2B4A1] [5C9486B5]   CRC32   
 01   89.1 [903B07BD] [78570397]           
 02   83.7 [63160AF5] [6061365B]           
 03   94.3 [4D635024] [59D943B2]           
 04   99.2 [77444362] [861B2DD0]           
 05   99.9 [362524FC] [49A56164]           
 06   94.2 [A38E6D87] [B20FCB8D]           
 07   99.9 [3685094E] [A0C8BE43]           
 08   96.8 [9EB313CF] [C14B3584]           
 09   98.2 [C4AE4E08] [0D00F4C0]           
 10   96.8 [5F696023] [A8EF4CC4]           
 11   98.2 [A8414881] [56AE2FA5]           
 12   99.9 [47E9AFB6] [ABD2A5D9]           
 13   99.9 [514E4C80] [19B0DFA8]           
 14   74.9 [F3F231F4] [CD9C96DE]           
 15   79.4 [2F60FAE8] [567556ED]           
 16   99.9 [94DF964A] [FFF8E442]           
 17   99.7 [D5B09336] [FFAFAFF1]           
 18   89.1 [AC9A1CD0] [BAB9076F]           
 19   89.1 [1EB6D6B4] [8A64B39B]           
 20   99.9 [A7D61653] [C5426A08]           
 21   91.0 [7015EB2E] [11D89445]           



Create a new paste based on this one


Comments: