[ create a new paste ] login | about

Link: http://codepad.org/9WUVGZrh    [ raw code | fork ]

Plain Text, pasted on Mar 1:
foobar2000 1.3.10 / Dynamic Range Meter 1.1.1
log date: 2017-02-28 17:30:33

--------------------------------------------------------------------------------
Analyzed: Janis Joplin and the Full Tilt Boogie Band / Pearl (2016 MFSL Hybrid SACD)
--------------------------------------------------------------------------------

DR         Peak         RMS     Duration Track
--------------------------------------------------------------------------------
DR10      -0.48 dB   -12.81 dB      3:42 01-Move Over
DR10      -1.79 dB   -15.24 dB      3:59 02-Cry Baby
DR10      -1.45 dB   -15.05 dB      3:30 03-A Woman Left Lonely
DR10      -1.84 dB   -14.80 dB      3:53 04-Half Moon
DR10      -2.37 dB   -14.71 dB      2:28 05-Buried Alive In The Blues
DR11      -1.56 dB   -14.69 dB      3:45 06-My Baby
DR10      -1.42 dB   -13.94 dB      4:30 07-Me & Bobby McGee
DR10      -6.30 dB   -19.31 dB      1:47 08-Mercedes Benz
DR11      -0.75 dB   -13.78 dB      3:17 09-Trust Me
DR10      -0.32 dB   -12.93 dB      3:24 10-Get It While You Can
--------------------------------------------------------------------------------

Number of tracks:  10
Official DR value: DR10

Samplerate:        88200 Hz
Channels:          2
Bits per sample:   24
Bitrate:           2790 kbps
Codec:             FLAC
================================================================================




Create a new paste based on this one


Comments: