[ create a new paste ] login | about

Link: http://codepad.org/9Xd1blXU    [ raw code | fork ]

Plain Text, pasted on Jun 8:
foobar2000 1.3.15 / Dynamic Range Meter 1.1.1
log date: 2017-06-07 12:11:46

--------------------------------------------------------------------------------
Analyzed: The Beatles / Sgt. Pepper's Lonely Hearts Club Band [50th Anniversary 2x 180g Vinyl Edition]
--------------------------------------------------------------------------------

DR         Peak         RMS     Duration Track
--------------------------------------------------------------------------------
DR9       -2.00 dB   -13.56 dB      2:02 01-Sgt. Pepper's Lonely Hearts Club Band
DR10      -1.95 dB   -14.42 dB      2:45 02-With A Little Help From My Friends
DR10      -2.43 dB   -15.30 dB      3:27 03-Lucy In The Sky WIth Diamonds
DR10      -1.43 dB   -13.13 dB      2:46 04-Getting Better
DR11      -0.32 dB   -13.77 dB      2:37 05-Fixing A Hole
DR9       -3.07 dB   -15.33 dB      3:25 06-She's Leaving Home
DR9       -2.19 dB   -12.90 dB      2:40 07-Being For The Benefit Of Mr. Kite
DR10      -1.63 dB   -15.38 dB      5:05 08-Within You Without You
DR11      -2.07 dB   -14.96 dB      2:39 09-When I'm Sixty-Four
DR9       -2.30 dB   -12.93 dB      2:45 10-Lovely Rita
DR9       -1.73 dB   -13.08 dB      2:34 11-Good Morning Good Morning
DR8       -2.13 dB   -12.78 dB      1:20 12-Sgt. Pepper's Lonely Hearts Club Band (Reprise)
DR10      -0.60 dB   -13.80 dB      5:03 13-A Day In The Life
--------------------------------------------------------------------------------

Number of tracks:  13
Official DR value: DR10

Samplerate:        96000 Hz
Channels:          2
Bits per sample:   24
Bitrate:           2785 kbps
Codec:             FLAC
================================================================================

--------------------------------------------------------------------------------
Statistics for: 14-[runout groove]
Number of samples: 5239242
Duration: 0:55 
--------------------------------------------------------------------------------

                 Left              Right

Peak Value:     -3.47 dB   ---     -7.79 dB   
Avg RMS:       -24.14 dB   ---    -20.57 dB   
DR channel:     14.95 dB   ---      9.50 dB   
--------------------------------------------------------------------------------

Official DR Value: DR12

Samplerate:        96000 Hz
Channels:          2
Bits per sample:   24
Bitrate:           2404 kbps
Codec:             FLAC
================================================================================



Create a new paste based on this one


Comments: