[ create a new paste ] login | about

Link: http://codepad.org/9YwPJiB2    [ raw code | fork ]

Plain Text, pasted on Dec 5:
Exact Audio Copy V1.1 from 23. June 2015

EAC extraction logfile from 1. December 2016, 19:02

Lou Reed / Animal Serenade CD1

Used drive  : PLEXTOR BD-R  PX-B950SA   Adapter: 1  ID: 1

Read mode               : Secure
Utilize accurate stream : Yes
Defeat audio cache      : Yes
Make use of C2 pointers : No

Read offset correction                      : 6
Overread into Lead-In and Lead-Out          : No
Fill up missing offset samples with silence : Yes
Delete leading and trailing silent blocks   : No
Null samples used in CRC calculations       : Yes
Used interface                              : Native Win32 interface for Win NT & 2000

Used output format : Internal WAV Routines
Sample format      : 44.100 Hz; 16 Bit; Stereo


TOC of the extracted CD

     Track |   Start  |  Length  | Start sector | End sector 
    ---------------------------------------------------------
        1  |  0:00.00 |  2:07.50 |         0    |     9574   
        2  |  2:07.50 |  6:04.00 |      9575    |    36874   
        3  |  8:11.50 |  6:03.22 |     36875    |    64121   
        4  | 14:14.72 |  4:27.35 |     64122    |    84181   
        5  | 18:42.32 |  8:09.63 |     84182    |   120919   
        6  | 26:52.20 |  5:31.00 |    120920    |   145744   
        7  | 32:23.20 |  7:09.02 |    145745    |   177921   
        8  | 39:32.22 |  4:04.23 |    177922    |   196244   
        9  | 43:36.45 |  6:59.60 |    196245    |   227729   
       10  | 50:36.30 |  5:15.42 |    227730    |   251396   
       11  | 55:51.72 |  7:12.23 |    251397    |   283819   
       12  | 63:04.20 | 10:02.52 |    283820    |   329021   


Range status and errors

Selected range

     Filename C:\Lou Reed\2015 Sire Years Complete Albums (10CD Box Set Rhino Records)\2003 Animal Serenade 2CD\CD1\Lou Reed - Animal Serenade CD1.wav

     Peak level 100.0 %
     Extraction speed 8.3 X
     Range quality 100.0 %
     Test CRC 5C1A589A
     Copy CRC 5C1A589A
     Copy OK

No errors occurred

 
AccurateRip summary
 
Track  1  accurately ripped (confidence 5)  [3C1586D0]  (AR v2)
Track  2  accurately ripped (confidence 5)  [D0250F69]  (AR v2)
Track  3  accurately ripped (confidence 5)  [00625A68]  (AR v2)
Track  4  accurately ripped (confidence 5)  [CAE0F600]  (AR v2)
Track  5  accurately ripped (confidence 5)  [3209F9F7]  (AR v2)
Track  6  accurately ripped (confidence 5)  [B3212F54]  (AR v2)
Track  7  accurately ripped (confidence 5)  [EBF0100B]  (AR v2)
Track  8  accurately ripped (confidence 5)  [BBE6E7DE]  (AR v2)
Track  9  accurately ripped (confidence 5)  [3FAA299D]  (AR v2)
Track 10  accurately ripped (confidence 5)  [20F24CC8]  (AR v2)
Track 11  accurately ripped (confidence 5)  [CB3CEA24]  (AR v2)
Track 12  accurately ripped (confidence 5)  [686AB637]  (AR v2)
 
All tracks accurately ripped

End of status report

---- CUETools DB Plugin V2.1.6

[CTDB TOCID: fa4G5qW5kKxDn5V6o_0LDFArYBQ-] found
Submit result: fa4G5qW5kKxDn5V6o_0LDFArYBQ- has been confirmed
Track | CTDB Status
  1   | (62/63) Accurately ripped
  2   | (62/63) Accurately ripped
  3   | (62/63) Accurately ripped
  4   | (61/63) Accurately ripped
  5   | (62/63) Accurately ripped
  6   | (62/63) Accurately ripped
  7   | (62/63) Accurately ripped
  8   | (61/63) Accurately ripped
  9   | (60/63) Accurately ripped
 10   | (60/63) Accurately ripped
 11   | (58/63) Accurately ripped
 12   | (55/63) Accurately ripped


==== Log checksum 585A5B38E33A6DD0323F0041A411DC735A6A29510BFD9F2A6D58A552A5F25D0C ====



Create a new paste based on this one


Comments: