[ create a new paste ] login | about

Link: http://codepad.org/9cKaOuSi    [ raw code | fork ]

Plain Text, pasted on Feb 12:
foobar2000 1.3.17 / Dynamic Range Meter 1.1.1
log date: 2018-02-11 18:10:04

--------------------------------------------------------------------------------
Analyzed: Jethro Tull / Associated 1970 & 1971 Recordings (5.1 Surround Sound 2016 Remixed)
--------------------------------------------------------------------------------

DR         Peak         RMS     Duration Track
--------------------------------------------------------------------------------
DR14      -0.06 dB   -19.56 dB      2:49 01-Lick Your Fingers Clean
DR12      -8.44 dB   -25.58 dB      1:38 02-Just Trying To Be
DR16      -0.06 dB   -21.61 dB      9:43 03-My God (Early Version)
DR14      -0.08 dB   -21.06 dB      5:21 04-Wind-Up (Early Version)
DR13      -0.10 dB   -21.54 dB      7:08 05-Wond'ring Aloud, Again
DR14      -0.11 dB   -21.31 dB      3:20 06-Life Is A Long Song (New Mix)
DR14      -0.07 dB   -18.40 dB      3:13 07-Up The 'Pool (New Mix)
--------------------------------------------------------------------------------

Number of tracks:  7
Official DR value: DR14

Samplerate:        96000 Hz
Channels:          6
Bits per sample:   24
Bitrate:           7002 kbps
Codec:             FLAC
================================================================================




Create a new paste based on this one


Comments: