[ create a new paste ] login | about

Link: http://codepad.org/9eh39Yhr    [ raw code | fork ]

Plain Text, pasted on Nov 24:
1
2
3
4
5
6
7
8
9
10
11
12
13
14
15
16
17
18
19
20
21
22
23
24
25
26
27
28
29
30
31
32
33
34
35
36
37
38
39
40
41
42
43
44
45
46
47
48
49
50
51
52
53
54
55
56
57
58
59
60
61
62
63
64
65
66
67
68
69
70
71
72
73
74
75
76
77
78
79
80
81
82
83
84
85
86
87
88
89
90
91
92
93
94
95
96
97
98
99
100
101
102
103
104
105
106
107
108
109
110
111
112
113
114
115
116
117
118
119
120
121
122
123
124
125
126
127
128
129
130
131
132
133
134
135
136
137
138
139
140
141
142
143
144
145
146
147
148
149
150
151
152
153
154
155
156
157
158
159
160
161
162
163
164
165
166
167
168
169
170
171
172
173
174
175
176
177
178
179
180
181
182
183
184
185
186
187
188
189
190
191
192
193
194
195
196
197
198
199
200
201
202
203
204
205
206
207
208
209
210
211
212
213
214
215
216
217
218
219
220
221
222
223
224
225
226
227
228
229
230
231
232
233
234
235
236
237
238
239
240
241
242
243
244
245
246
247
248
249
250
251
252
253
254
255
256
257
258
259
260
261
262
263
264
265
266
267
268
269
270
271
272
273
274
275
276
277
278
279
280
281
282
283
284
285
286
287
288
289
290
291
292
293
294
295
296
297
298
299
300
301
302
303
304
305
306
307
308
309
310
311
312
313
314
315
316
317
318
319
320
321
322
323
324
325
326
327
328
329
330
331
332
333
334
335
336
337
338
339
340
341
342
343
344
345
346
347
348
349
350
351
352
353
354
355
356
357
358
359
360
361
362
363
364
365
366
367
368
369
370
371
372
373
374
375
376
377
378
379
380
381
382
383
384
385
386
387
388
389
390
391
392
393
394
395
396
397
398
399
400
401
402
403
404
405
406
407
408
409
410
411
412
413
414
415
416
417
418
419
420
421
422
423
424
425
426
427
428
429
430
431
432
433
434
435
436
437
438
439
440
441
442
443
444
445
446
447
448
449
450
451
452
453
454
455
456
457
458
459
460
461
462
463
464
465
466
467
468
469
470
471
472
473
474
475
476
477
478
479
480
481
482
483
484
485
486
487
488
489
490
491
492
493
494
495
496
497
498
499
500
501
502
503
504
505
506
507
508
509
510
511
512
513
514
515
516
517
518
519
520
521
522
523
524
525
526
527
528
529
530
531
532
533
534
535
536
537
538
539
540
541
542
543
544
545
546
547
548
549
550
551
552
553
554
555
556
557
558
559
560
561
562
563
564
565
566
567
568
569
570
571
572
573
574
575
576
577
578
579
580
581
582
583
584
585
586
587
588
589
590
591
592
593
594
595
596
597
598
599
600
601
602
603
604
605
606
607
608
609
610
611
612
613
614
615
616
617
618
619
620
621
622
623
624
625
626
627
628
629
630
631
632
633
634
635
636
637
638
639
640
641
642
643
644
645
646
647
648
649
650
651
652
653
654
655
656
657
658
659
660
661
662
663
664
665
666
667
668
669
670
671
672
673
674
675
676
677
678
679
680
681
682
683
684
685
686
687
688
689
690
691
692
693
694
695
696
697
698
699
700
701
702
703
704
705
706
707
708
709
710
711
712
713
714
715
716
717
718
719
720
721
722
723
724
725
726
727
728
729
730
731
732
733
734
735
736
737
738
739
740
741
742
743
744
745
746
747
748
749
750
751
752
753
754
755
756
757
758
759
760
761
762
763
764
765
766
767
768
769
770
771
772
773
774
775
776
777
778
779
780
781
782
783
784
785
786
787
788
789
790
791
792
793
794
795
796
797
798
799
800
801
802
803
804
805
806
807
808
809
810
811
812
813
814
815
816
817
818
819
820
821
822
823
824
825
826
827
828
829
830
831
832
833
834
835
836
837
838
839
840
841
842
843
844
845
846
847
848
849
850
851
852
853
854
855
856
857
858
859
860
861
862
863
864
Disc Title:     BD 1 - Concert Film
Disc Size:      39,776,846,885 bytes
Protection:     AACS
BD-Java:        Yes
BDInfo:         0.5.8

Notes:          

BDINFO HOME:
  Cinema Squid
    http://www.cinemasquid.com/blu-ray/tools/bdinfo

INCLUDES FORUMS REPORT FOR:
  AVS Forum Blu-ray Audio and Video Specifications Thread
    http://www.avsforum.com/avs-vb/showthread.php?t=1155731


********************
PLAYLIST: 00003.MPLS
********************

<--- BEGIN FORUMS PASTE --->
[code]
                                                                                                                Total   Video                                             
Title                                                           Codec   Length  Movie Size      Disc Size       Bitrate Bitrate Main Audio Track                          Secondary Audio Track
-----                                                           ------  ------- --------------  --------------  ------- ------- ------------------                        ---------------------
00003.MPLS                                                      AVC     1:35:19 28,120,639,488  39,776,846,885  39.33   23.92   LPCM 2.0 2304Kbps (48kHz/24-bit)          DTS-HD Master 5.1 5115Kbps (48kHz/24-bit)
[/code]

[code]

DISC INFO:

Disc Title:     BD 1 - Concert Film
Disc Size:      39,776,846,885 bytes
Protection:     AACS
BD-Java:        Yes
BDInfo:         0.5.8

PLAYLIST REPORT:

Name:                   00003.MPLS
Length:                 1:35:19.755 (h:m:s.ms)
Size:                   28,120,639,488 bytes
Total Bitrate:          39.33 Mbps

VIDEO:

Codec                   Bitrate             Description     
-----                   -------             -----------     
MPEG-4 AVC Video        23923 kbps          1080p / 23.976 fps / 16:9 / High Profile 4.1

AUDIO:

Codec                           Language        Bitrate         Description     
-----                           --------        -------         -----------     
LPCM Audio                      English         2304 kbps       2.0 / 48 kHz / 2304 kbps / 24-bit
DTS-HD Master Audio             English         5115 kbps       5.1 / 48 kHz / 5115 kbps / 24-bit (DTS Core: 5.1 / 48 kHz / 1509 kbps / 24-bit)
Dolby TrueHD Audio              English         4490 kbps       5.1 / 48 kHz / 4490 kbps / 24-bit (AC3 Embedded: 5.1 / 48 kHz / 640 kbps)

FILES:

Name            Time In         Length          Size            Total Bitrate   
----            -------         ------          ----            -------------   
00003.M2TS      0:00:00.000     1:35:19.755     28,120,639,488  39,331          

CHAPTERS:

Number          Time In         Length          Avg Video Rate  Max 1-Sec Rate  Max 1-Sec Time  Max 5-Sec Rate  Max 5-Sec Time  Max 10Sec Rate  Max 10Sec Time  Avg Frame Size  Max Frame Size  Max Frame Time  
------          -------         ------          --------------  --------------  --------------  --------------  --------------  --------------  --------------  --------------  --------------  --------------  
1               0:00:00.000     1:35:19.755     23,923 kbps     49,315 kbps     01:14:37.514    31,007 kbps     00:48:51.595    29,230 kbps     00:48:50.177    124,725 bytes   543,035 bytes   00:08:56.077    

STREAM DIAGNOSTICS:

File            PID             Type            Codec           Language                Seconds                 Bitrate                 Bytes           Packets         
----            ---             ----            -----           --------                --------------          --------------          -------------   -----           
00003.M2TS      4113 (0x1011)   0x1B            AVC                                     5719.672                23,923                  17,104,224,097  93,038,323      
00003.M2TS      4352 (0x1100)   0x80            LPCM            eng (English)           5719.672                2,310                   1,651,841,956   9,151,479       
00003.M2TS      4353 (0x1101)   0x86            DTS-HD MA       eng (English)           5719.672                5,115                   3,657,105,896   20,767,609      
00003.M2TS      4354 (0x1102)   0x83            TrueHD          eng (English)           5719.672                5,130                   3,668,071,421   23,250,087      

[/code]
<---- END FORUMS PASTE ---->

QUICK SUMMARY:

Disc Title: BD 1 - Concert Film
Disc Size: 39,776,846,885 bytes
Protection: AACS
BD-Java: Yes
Playlist: 00003.MPLS
Size: 28,120,639,488 bytes
Length: 1:35:19.755
Total Bitrate: 39.33 Mbps
Video: MPEG-4 AVC Video / 23923 kbps / 1080p / 23.976 fps / 16:9 / High Profile 4.1
Audio: English / LPCM Audio / 2.0 / 48 kHz / 2304 kbps / 24-bit
Audio: English / DTS-HD Master Audio / 5.1 / 48 kHz / 5115 kbps / 24-bit (DTS Core: 5.1 / 48 kHz / 1509 kbps / 24-bit)
Audio: English / Dolby TrueHD Audio / 5.1 / 48 kHz / 4490 kbps / 24-bit (AC3 Embedded: 5.1 / 48 kHz / 640 kbps)


********************
PLAYLIST: 01002.MPLS
********************

<--- BEGIN FORUMS PASTE --->
[code]
                                                                                                                Total   Video                                             
Title                                                           Codec   Length  Movie Size      Disc Size       Bitrate Bitrate Main Audio Track                          Secondary Audio Track
-----                                                           ------  ------- --------------  --------------  ------- ------- ------------------                        ---------------------
01002.MPLS                                                      AVC     1:35:19 28,120,639,488  39,776,846,885  39.33   23.92   LPCM 2.0 2304Kbps (48kHz/24-bit)          DTS-HD Master 5.1 5115Kbps (48kHz/24-bit)
[/code]

[code]

DISC INFO:

Disc Title:     BD 1 - Concert Film
Disc Size:      39,776,846,885 bytes
Protection:     AACS
BD-Java:        Yes
BDInfo:         0.5.8

PLAYLIST REPORT:

Name:                   01002.MPLS
Length:                 1:35:19.755 (h:m:s.ms)
Size:                   28,120,639,488 bytes
Total Bitrate:          39.33 Mbps

VIDEO:

Codec                   Bitrate             Description     
-----                   -------             -----------     
MPEG-4 AVC Video        23923 kbps          1080p / 23.976 fps / 16:9 / High Profile 4.1

AUDIO:

Codec                           Language        Bitrate         Description     
-----                           --------        -------         -----------     
LPCM Audio                      English         2304 kbps       2.0 / 48 kHz / 2304 kbps / 24-bit
DTS-HD Master Audio             English         5115 kbps       5.1 / 48 kHz / 5115 kbps / 24-bit (DTS Core: 5.1 / 48 kHz / 1509 kbps / 24-bit)
Dolby TrueHD Audio              English         4490 kbps       5.1 / 48 kHz / 4490 kbps / 24-bit (AC3 Embedded: 5.1 / 48 kHz / 640 kbps)

FILES:

Name            Time In         Length          Size            Total Bitrate   
----            -------         ------          ----            -------------   
00003.M2TS      0:00:00.000     1:35:19.755     28,120,639,488  39,331          

CHAPTERS:

Number          Time In         Length          Avg Video Rate  Max 1-Sec Rate  Max 1-Sec Time  Max 5-Sec Rate  Max 5-Sec Time  Max 10Sec Rate  Max 10Sec Time  Avg Frame Size  Max Frame Size  Max Frame Time  
------          -------         ------          --------------  --------------  --------------  --------------  --------------  --------------  --------------  --------------  --------------  --------------  
1               0:00:00.000     0:02:02.622     19,207 kbps     30,138 kbps     00:01:38.598    28,734 kbps     00:00:33.241    28,172 kbps     00:00:31.281    100,103 bytes   216,810 bytes   00:01:27.128    
2               0:02:02.622     0:03:41.930     24,489 kbps     48,759 kbps     00:02:10.713    28,025 kbps     00:02:10.505    27,346 kbps     00:04:20.927    127,673 bytes   493,010 bytes   00:02:10.880    
3               0:05:44.552     0:05:50.141     24,228 kbps     41,146 kbps     00:09:30.444    30,081 kbps     00:09:37.827    29,057 kbps     00:09:33.030    126,315 bytes   543,035 bytes   00:08:56.077    
4               0:11:34.694     0:04:08.748     23,437 kbps     35,842 kbps     00:11:37.697    27,464 kbps     00:11:36.028    26,069 kbps     00:11:37.613    122,189 bytes   348,104 bytes   00:14:18.941    
5               0:15:43.442     0:04:59.799     24,783 kbps     37,104 kbps     00:19:15.112    29,873 kbps     00:15:47.446    28,184 kbps     00:15:50.574    129,208 bytes   428,177 bytes   00:19:15.154    
6               0:20:43.242     0:03:02.098     22,912 kbps     33,766 kbps     00:20:51.625    28,809 kbps     00:20:49.623    25,400 kbps     00:20:50.415    119,455 bytes   358,338 bytes   00:22:19.713    
7               0:23:45.340     0:04:55.211     23,974 kbps     34,944 kbps     00:23:55.058    27,487 kbps     00:23:54.641    25,929 kbps     00:24:22.627    124,988 bytes   365,543 bytes   00:27:46.498    
8               0:28:40.552     0:02:17.220     24,700 kbps     36,550 kbps     00:29:46.826    30,566 kbps     00:29:53.500    28,264 kbps     00:30:29.744    128,777 bytes   351,587 bytes   00:29:57.712    
9               0:30:57.772     0:03:37.300     24,201 kbps     33,286 kbps     00:34:02.540    28,592 kbps     00:34:00.329    26,953 kbps     00:34:02.498    126,175 bytes   342,270 bytes   00:34:02.582    
10              0:34:35.073     0:06:52.662     23,911 kbps     42,740 kbps     00:35:37.927    28,972 kbps     00:35:35.758    27,239 kbps     00:35:31.254    124,662 bytes   369,997 bytes   00:35:37.969    
11              0:41:27.735     0:11:03.746     24,924 kbps     41,795 kbps     00:48:54.931    31,007 kbps     00:48:51.595    29,230 kbps     00:48:50.177    129,944 bytes   401,159 bytes   00:47:23.507    
12              0:52:31.481     0:05:30.496     24,411 kbps     36,741 kbps     00:56:52.117    28,455 kbps     00:57:44.335    26,617 kbps     00:56:02.942    127,267 bytes   389,293 bytes   00:56:37.143    
13              0:58:01.978     0:07:21.566     24,062 kbps     39,256 kbps     00:58:11.362    28,777 kbps     00:58:11.362    26,820 kbps     00:58:05.523    125,449 bytes   386,415 bytes   01:03:02.320    
14              1:05:23.544     0:05:25.199     24,247 kbps     33,111 kbps     01:06:39.829    28,711 kbps     01:06:39.745    27,449 kbps     01:06:48.629    126,412 bytes   479,825 bytes   01:08:16.425    
15              1:10:48.744     0:08:04.984     24,432 kbps     49,315 kbps     01:14:37.514    28,843 kbps     01:14:34.261    27,788 kbps     01:15:13.091    127,376 bytes   482,919 bytes   01:16:07.604    
16              1:18:53.729     0:06:39.899     24,480 kbps     39,275 kbps     01:22:27.192    27,788 kbps     01:22:23.313    26,798 kbps     01:25:11.689    127,627 bytes   483,629 bytes   01:23:28.795    
17              1:25:33.628     0:07:25.111     24,150 kbps     34,772 kbps     01:32:07.897    30,231 kbps     01:31:05.042    28,813 kbps     01:31:03.583    125,919 bytes   401,270 bytes   01:32:01.307    
18              1:32:58.739     0:02:18.972     14,578 kbps     26,171 kbps     01:33:23.556    24,908 kbps     01:33:20.386    24,541 kbps     01:33:21.387    76,005 bytes    228,644 bytes   01:33:37.903    
19              1:35:17.712     0:00:02.043     35 kbps         39 kbps         01:35:18.170    0 kbps          00:00:00.000    0 kbps          00:00:00.000    189 bytes       850 bytes       01:35:18.337    

STREAM DIAGNOSTICS:

File            PID             Type            Codec           Language                Seconds                 Bitrate                 Bytes           Packets         
----            ---             ----            -----           --------                --------------          --------------          -------------   -----           
00003.M2TS      4113 (0x1011)   0x1B            AVC                                     5719.672                23,923                  17,104,224,097  93,038,323      
00003.M2TS      4352 (0x1100)   0x80            LPCM            eng (English)           5719.672                2,310                   1,651,841,956   9,151,479       
00003.M2TS      4353 (0x1101)   0x86            DTS-HD MA       eng (English)           5719.672                5,115                   3,657,105,896   20,767,609      
00003.M2TS      4354 (0x1102)   0x83            TrueHD          eng (English)           5719.672                5,130                   3,668,071,421   23,250,087      

[/code]
<---- END FORUMS PASTE ---->

QUICK SUMMARY:

Disc Title: BD 1 - Concert Film
Disc Size: 39,776,846,885 bytes
Protection: AACS
BD-Java: Yes
Playlist: 01002.MPLS
Size: 28,120,639,488 bytes
Length: 1:35:19.755
Total Bitrate: 39.33 Mbps
Video: MPEG-4 AVC Video / 23923 kbps / 1080p / 23.976 fps / 16:9 / High Profile 4.1
Audio: English / LPCM Audio / 2.0 / 48 kHz / 2304 kbps / 24-bit
Audio: English / DTS-HD Master Audio / 5.1 / 48 kHz / 5115 kbps / 24-bit (DTS Core: 5.1 / 48 kHz / 1509 kbps / 24-bit)
Audio: English / Dolby TrueHD Audio / 5.1 / 48 kHz / 4490 kbps / 24-bit (AC3 Embedded: 5.1 / 48 kHz / 640 kbps)


********************
PLAYLIST: 00004.MPLS
********************

<--- BEGIN FORUMS PASTE --->
[code]
                                                                                                                Total   Video                                             
Title                                                           Codec   Length  Movie Size      Disc Size       Bitrate Bitrate Main Audio Track                          Secondary Audio Track
-----                                                           ------  ------- --------------  --------------  ------- ------- ------------------                        ---------------------
00004.MPLS                                                      AVC     0:37:03 11,279,904,768  39,776,846,885  40.58   23.94   LPCM 2.0 2304Kbps (48kHz/24-bit)          DTS-HD Master 5.1 5502Kbps (48kHz/24-bit)
[/code]

[code]

DISC INFO:

Disc Title:     BD 1 - Concert Film
Disc Size:      39,776,846,885 bytes
Protection:     AACS
BD-Java:        Yes
BDInfo:         0.5.8

PLAYLIST REPORT:

Name:                   00004.MPLS
Length:                 0:37:03.679 (h:m:s.ms)
Size:                   11,279,904,768 bytes
Total Bitrate:          40.58 Mbps

VIDEO:

Codec                   Bitrate             Description     
-----                   -------             -----------     
MPEG-4 AVC Video        23937 kbps          1080p / 23.976 fps / 16:9 / High Profile 4.1

AUDIO:

Codec                           Language        Bitrate         Description     
-----                           --------        -------         -----------     
LPCM Audio                      English         2304 kbps       2.0 / 48 kHz / 2304 kbps / 24-bit
DTS-HD Master Audio             English         5502 kbps       5.1 / 48 kHz / 5502 kbps / 24-bit (DTS Core: 5.1 / 48 kHz / 1509 kbps / 24-bit)
Dolby TrueHD Audio              English         4995 kbps       5.1 / 48 kHz / 4995 kbps / 24-bit (AC3 Embedded: 5.1 / 48 kHz / 640 kbps)

FILES:

Name            Time In         Length          Size            Total Bitrate   
----            -------         ------          ----            -------------   
00004.M2TS      0:00:00.000     0:37:03.679     11,279,904,768  40,581          

CHAPTERS:

Number          Time In         Length          Avg Video Rate  Max 1-Sec Rate  Max 1-Sec Time  Max 5-Sec Rate  Max 5-Sec Time  Max 10Sec Rate  Max 10Sec Time  Avg Frame Size  Max Frame Size  Max Frame Time  
------          -------         ------          --------------  --------------  --------------  --------------  --------------  --------------  --------------  --------------  --------------  --------------  
1               0:00:00.000     0:37:03.679     23,937 kbps     42,810 kbps     00:06:56.833    30,199 kbps     00:28:51.855    28,341 kbps     00:28:48.351    124,798 bytes   503,271 bytes   00:15:33.766    

STREAM DIAGNOSTICS:

File            PID             Type            Codec           Language                Seconds                 Bitrate                 Bytes           Packets         
----            ---             ----            -----           --------                --------------          --------------          -------------   -----           
00004.M2TS      4113 (0x1011)   0x1B            AVC                                     2223.596                23,938                  6,653,475,549   36,191,533      
00004.M2TS      4352 (0x1100)   0x80            LPCM            eng (English)           2223.596                2,310                   642,174,236     3,557,752       
00004.M2TS      4353 (0x1101)   0x86            DTS-HD MA       eng (English)           2223.596                5,502                   1,529,320,576   8,658,300       
00004.M2TS      4354 (0x1102)   0x83            TrueHD          eng (English)           2223.596                5,635                   1,566,319,270   10,243,068      

[/code]
<---- END FORUMS PASTE ---->

QUICK SUMMARY:

Disc Title: BD 1 - Concert Film
Disc Size: 39,776,846,885 bytes
Protection: AACS
BD-Java: Yes
Playlist: 00004.MPLS
Size: 11,279,904,768 bytes
Length: 0:37:03.679
Total Bitrate: 40.58 Mbps
Video: MPEG-4 AVC Video / 23937 kbps / 1080p / 23.976 fps / 16:9 / High Profile 4.1
Audio: English / LPCM Audio / 2.0 / 48 kHz / 2304 kbps / 24-bit
Audio: English / DTS-HD Master Audio / 5.1 / 48 kHz / 5502 kbps / 24-bit (DTS Core: 5.1 / 48 kHz / 1509 kbps / 24-bit)
Audio: English / Dolby TrueHD Audio / 5.1 / 48 kHz / 4995 kbps / 24-bit (AC3 Embedded: 5.1 / 48 kHz / 640 kbps)


********************
PLAYLIST: 01003.MPLS
********************

<--- BEGIN FORUMS PASTE --->
[code]
                                                                                                                Total   Video                                             
Title                                                           Codec   Length  Movie Size      Disc Size       Bitrate Bitrate Main Audio Track                          Secondary Audio Track
-----                                                           ------  ------- --------------  --------------  ------- ------- ------------------                        ---------------------
01003.MPLS                                                      AVC     0:37:03 11,279,904,768  39,776,846,885  40.58   23.94   LPCM 2.0 2304Kbps (48kHz/24-bit)          DTS-HD Master 5.1 5502Kbps (48kHz/24-bit)
[/code]

[code]

DISC INFO:

Disc Title:     BD 1 - Concert Film
Disc Size:      39,776,846,885 bytes
Protection:     AACS
BD-Java:        Yes
BDInfo:         0.5.8

PLAYLIST REPORT:

Name:                   01003.MPLS
Length:                 0:37:03.679 (h:m:s.ms)
Size:                   11,279,904,768 bytes
Total Bitrate:          40.58 Mbps

VIDEO:

Codec                   Bitrate             Description     
-----                   -------             -----------     
MPEG-4 AVC Video        23937 kbps          1080p / 23.976 fps / 16:9 / High Profile 4.1

AUDIO:

Codec                           Language        Bitrate         Description     
-----                           --------        -------         -----------     
LPCM Audio                      English         2304 kbps       2.0 / 48 kHz / 2304 kbps / 24-bit
DTS-HD Master Audio             English         5502 kbps       5.1 / 48 kHz / 5502 kbps / 24-bit (DTS Core: 5.1 / 48 kHz / 1509 kbps / 24-bit)
Dolby TrueHD Audio              English         4995 kbps       5.1 / 48 kHz / 4995 kbps / 24-bit (AC3 Embedded: 5.1 / 48 kHz / 640 kbps)

FILES:

Name            Time In         Length          Size            Total Bitrate   
----            -------         ------          ----            -------------   
00004.M2TS      0:00:00.000     0:37:03.679     11,279,904,768  40,581          

CHAPTERS:

Number          Time In         Length          Avg Video Rate  Max 1-Sec Rate  Max 1-Sec Time  Max 5-Sec Rate  Max 5-Sec Time  Max 10Sec Rate  Max 10Sec Time  Avg Frame Size  Max Frame Size  Max Frame Time  
------          -------         ------          --------------  --------------  --------------  --------------  --------------  --------------  --------------  --------------  --------------  --------------  
1               0:00:00.000     0:06:48.825     23,966 kbps     39,922 kbps     00:00:24.107    29,243 kbps     00:05:55.355    28,096 kbps     00:03:57.987    124,936 bytes   436,604 bytes   00:05:58.649    
2               0:06:48.825     0:05:38.504     24,208 kbps     42,810 kbps     00:06:56.833    28,295 kbps     00:06:54.539    27,426 kbps     00:11:51.001    126,207 bytes   437,195 bytes   00:11:52.253    
3               0:12:27.329     0:02:53.423     24,064 kbps     41,354 kbps     00:14:24.488    29,730 kbps     00:13:21.091    27,676 kbps     00:13:16.587    125,456 bytes   462,118 bytes   00:13:56.544    
4               0:15:20.753     0:05:49.515     24,341 kbps     41,327 kbps     00:16:06.590    29,858 kbps     00:18:13.425    27,214 kbps     00:18:08.378    126,903 bytes   503,271 bytes   00:15:33.766    
5               0:21:10.269     0:11:24.100     24,093 kbps     37,906 kbps     00:25:40.121    30,199 kbps     00:28:51.855    28,341 kbps     00:28:48.351    125,612 bytes   423,131 bytes   00:25:40.205    
6               0:32:34.369     0:04:29.310     22,548 kbps     31,331 kbps     00:34:07.420    27,474 kbps     00:36:34.901    26,588 kbps     00:36:31.147    117,589 bytes   391,568 bytes   00:34:07.462    

STREAM DIAGNOSTICS:

File            PID             Type            Codec           Language                Seconds                 Bitrate                 Bytes           Packets         
----            ---             ----            -----           --------                --------------          --------------          -------------   -----           
00004.M2TS      4113 (0x1011)   0x1B            AVC                                     2223.596                23,938                  6,653,475,549   36,191,533      
00004.M2TS      4352 (0x1100)   0x80            LPCM            eng (English)           2223.596                2,310                   642,174,236     3,557,752       
00004.M2TS      4353 (0x1101)   0x86            DTS-HD MA       eng (English)           2223.596                5,502                   1,529,320,576   8,658,300       
00004.M2TS      4354 (0x1102)   0x83            TrueHD          eng (English)           2223.596                5,635                   1,566,319,270   10,243,068      

[/code]
<---- END FORUMS PASTE ---->

QUICK SUMMARY:

Disc Title: BD 1 - Concert Film
Disc Size: 39,776,846,885 bytes
Protection: AACS
BD-Java: Yes
Playlist: 01003.MPLS
Size: 11,279,904,768 bytes
Length: 0:37:03.679
Total Bitrate: 40.58 Mbps
Video: MPEG-4 AVC Video / 23937 kbps / 1080p / 23.976 fps / 16:9 / High Profile 4.1
Audio: English / LPCM Audio / 2.0 / 48 kHz / 2304 kbps / 24-bit
Audio: English / DTS-HD Master Audio / 5.1 / 48 kHz / 5502 kbps / 24-bit (DTS Core: 5.1 / 48 kHz / 1509 kbps / 24-bit)
Audio: English / Dolby TrueHD Audio / 5.1 / 48 kHz / 4995 kbps / 24-bit (AC3 Embedded: 5.1 / 48 kHz / 640 kbps)


********************
PLAYLIST: 00001.MPLS
********************

<--- BEGIN FORUMS PASTE --->
[code]
                                                                                                                Total   Video                                             
Title                                                           Codec   Length  Movie Size      Disc Size       Bitrate Bitrate Main Audio Track                          Secondary Audio Track
-----                                                           ------  ------- --------------  --------------  ------- ------- ------------------                        ---------------------
00001.MPLS                                                      AVC     0:01:01 149,354,496     39,776,846,885  19.41   10.73   LPCM 2.0 2304Kbps (48kHz/24-bit)          DTS-HD Master 5.1 2085Kbps (48kHz/24-bit)
[/code]

[code]

DISC INFO:

Disc Title:     BD 1 - Concert Film
Disc Size:      39,776,846,885 bytes
Protection:     AACS
BD-Java:        Yes
BDInfo:         0.5.8

PLAYLIST REPORT:

Name:                   00001.MPLS
Length:                 0:01:01.561 (h:m:s.ms)
Size:                   149,354,496 bytes
Total Bitrate:          19.41 Mbps

VIDEO:

Codec                   Bitrate             Description     
-----                   -------             -----------     
MPEG-4 AVC Video        10727 kbps          1080p / 23.976 fps / 16:9 / High Profile 4.1

AUDIO:

Codec                           Language        Bitrate         Description     
-----                           --------        -------         -----------     
LPCM Audio                      Undetermined    2304 kbps       2.0 / 48 kHz / 2304 kbps / 24-bit
DTS-HD Master Audio             Undetermined    2085 kbps       5.1 / 48 kHz / 2085 kbps / 24-bit (DTS Core: 5.1 / 48 kHz / 1509 kbps / 24-bit)
Dolby TrueHD Audio              Undetermined    960 kbps        5.1 / 48 kHz / 960 kbps / 16-bit (AC3 Embedded: 5.1 / 48 kHz / 640 kbps)

FILES:

Name            Time In         Length          Size            Total Bitrate   
----            -------         ------          ----            -------------   
00001.M2TS      0:00:00.000     0:01:01.561     149,354,496     19,409          

CHAPTERS:

Number          Time In         Length          Avg Video Rate  Max 1-Sec Rate  Max 1-Sec Time  Max 5-Sec Rate  Max 5-Sec Time  Max 10Sec Rate  Max 10Sec Time  Avg Frame Size  Max Frame Size  Max Frame Time  
------          -------         ------          --------------  --------------  --------------  --------------  --------------  --------------  --------------  --------------  --------------  --------------  
1               0:00:00.000     0:01:01.561     10,727 kbps     35,391 kbps     00:00:11.386    33,276 kbps     00:00:08.800    28,955 kbps     00:00:04.629    55,926 bytes    415,763 bytes   00:00:43.043    

STREAM DIAGNOSTICS:

File            PID             Type            Codec           Language                Seconds                 Bitrate                 Bytes           Packets         
----            ---             ----            -----           --------                --------------          --------------          -------------   -----           
00001.M2TS      4113 (0x1011)   0x1B            AVC                                     61.478                  10,742                  82,547,221      449,815         
00001.M2TS      4352 (0x1100)   0x80            LPCM            und (Undetermined)      61.478                  2,312                   17,766,976      98,432          
00001.M2TS      4353 (0x1101)   0x86            DTS-HD MA       und (Undetermined)      61.478                  2,088                   16,046,904      96,959          
00001.M2TS      4354 (0x1102)   0x83            TrueHD          und (Undetermined)      61.478                  1,602                   12,313,058      129,919         

[/code]
<---- END FORUMS PASTE ---->

QUICK SUMMARY:

Disc Title: BD 1 - Concert Film
Disc Size: 39,776,846,885 bytes
Protection: AACS
BD-Java: Yes
Playlist: 00001.MPLS
Size: 149,354,496 bytes
Length: 0:01:01.561
Total Bitrate: 19.41 Mbps
Video: MPEG-4 AVC Video / 10727 kbps / 1080p / 23.976 fps / 16:9 / High Profile 4.1
Audio: Undetermined / LPCM Audio / 2.0 / 48 kHz / 2304 kbps / 24-bit
Audio: Undetermined / DTS-HD Master Audio / 5.1 / 48 kHz / 2085 kbps / 24-bit (DTS Core: 5.1 / 48 kHz / 1509 kbps / 24-bit)
Audio: Undetermined / Dolby TrueHD Audio / 5.1 / 48 kHz / 960 kbps / 16-bit (AC3 Embedded: 5.1 / 48 kHz / 640 kbps)


********************
PLAYLIST: 01001.MPLS
********************

<--- BEGIN FORUMS PASTE --->
[code]
                                                                                                                Total   Video                                             
Title                                                           Codec   Length  Movie Size      Disc Size       Bitrate Bitrate Main Audio Track                          Secondary Audio Track
-----                                                           ------  ------- --------------  --------------  ------- ------- ------------------                        ---------------------
01001.MPLS                                                      AVC     0:01:01 149,354,496     39,776,846,885  19.41   10.73   LPCM 2.0 2304Kbps (48kHz/24-bit)          DTS-HD Master 5.1 2085Kbps (48kHz/24-bit)
[/code]

[code]

DISC INFO:

Disc Title:     BD 1 - Concert Film
Disc Size:      39,776,846,885 bytes
Protection:     AACS
BD-Java:        Yes
BDInfo:         0.5.8

PLAYLIST REPORT:

Name:                   01001.MPLS
Length:                 0:01:01.561 (h:m:s.ms)
Size:                   149,354,496 bytes
Total Bitrate:          19.41 Mbps

VIDEO:

Codec                   Bitrate             Description     
-----                   -------             -----------     
MPEG-4 AVC Video        10727 kbps          1080p / 23.976 fps / 16:9 / High Profile 4.1

AUDIO:

Codec                           Language        Bitrate         Description     
-----                           --------        -------         -----------     
LPCM Audio                      Undetermined    2304 kbps       2.0 / 48 kHz / 2304 kbps / 24-bit
DTS-HD Master Audio             Undetermined    2085 kbps       5.1 / 48 kHz / 2085 kbps / 24-bit (DTS Core: 5.1 / 48 kHz / 1509 kbps / 24-bit)
Dolby TrueHD Audio              Undetermined    960 kbps        5.1 / 48 kHz / 960 kbps / 16-bit (AC3 Embedded: 5.1 / 48 kHz / 640 kbps)

FILES:

Name            Time In         Length          Size            Total Bitrate   
----            -------         ------          ----            -------------   
00001.M2TS      0:00:00.000     0:01:01.561     149,354,496     19,409          

CHAPTERS:

Number          Time In         Length          Avg Video Rate  Max 1-Sec Rate  Max 1-Sec Time  Max 5-Sec Rate  Max 5-Sec Time  Max 10Sec Rate  Max 10Sec Time  Avg Frame Size  Max Frame Size  Max Frame Time  
------          -------         ------          --------------  --------------  --------------  --------------  --------------  --------------  --------------  --------------  --------------  --------------  
1               0:00:00.000     0:00:14.014     23,119 kbps     35,391 kbps     00:00:11.386    33,276 kbps     00:00:08.800    28,884 kbps     00:00:03.920    120,172 bytes   389,451 bytes   00:00:13.805    
2               0:00:14.014     0:00:45.044     7,086 kbps      13,339 kbps     00:00:14.014    8,341 kbps      00:00:14.014    7,636 kbps      00:00:14.014    36,941 bytes    415,763 bytes   00:00:43.043    
3               0:00:59.059     0:00:02.502     6,882 kbps      9,562 kbps      00:00:59.684    0 kbps          00:00:00.000    0 kbps          00:00:00.000    36,486 bytes    415,763 bytes   00:00:59.726    

STREAM DIAGNOSTICS:

File            PID             Type            Codec           Language                Seconds                 Bitrate                 Bytes           Packets         
----            ---             ----            -----           --------                --------------          --------------          -------------   -----           
00001.M2TS      4113 (0x1011)   0x1B            AVC                                     61.478                  10,742                  82,547,221      449,815         
00001.M2TS      4352 (0x1100)   0x80            LPCM            und (Undetermined)      61.478                  2,312                   17,766,976      98,432          
00001.M2TS      4353 (0x1101)   0x86            DTS-HD MA       und (Undetermined)      61.478                  2,088                   16,046,904      96,959          
00001.M2TS      4354 (0x1102)   0x83            TrueHD          und (Undetermined)      61.478                  1,602                   12,313,058      129,919         

[/code]
<---- END FORUMS PASTE ---->

QUICK SUMMARY:

Disc Title: BD 1 - Concert Film
Disc Size: 39,776,846,885 bytes
Protection: AACS
BD-Java: Yes
Playlist: 01001.MPLS
Size: 149,354,496 bytes
Length: 0:01:01.561
Total Bitrate: 19.41 Mbps
Video: MPEG-4 AVC Video / 10727 kbps / 1080p / 23.976 fps / 16:9 / High Profile 4.1
Audio: Undetermined / LPCM Audio / 2.0 / 48 kHz / 2304 kbps / 24-bit
Audio: Undetermined / DTS-HD Master Audio / 5.1 / 48 kHz / 2085 kbps / 24-bit (DTS Core: 5.1 / 48 kHz / 1509 kbps / 24-bit)
Audio: Undetermined / Dolby TrueHD Audio / 5.1 / 48 kHz / 960 kbps / 16-bit (AC3 Embedded: 5.1 / 48 kHz / 640 kbps)


********************
PLAYLIST: 00002.MPLS
********************

<--- BEGIN FORUMS PASTE --->
[code]
                                                                                                                Total   Video                                             
Title                                                           Codec   Length  Movie Size      Disc Size       Bitrate Bitrate Main Audio Track                          Secondary Audio Track
-----                                                           ------  ------- --------------  --------------  ------- ------- ------------------                        ---------------------
00002.MPLS                                                      AVC     0:00:46 81,624,384      39,776,846,885  14.18   6.92    LPCM 2.0 2304Kbps (48kHz/24-bit)          DTS-HD Master 5.1 1543Kbps (48kHz/24-bit)
[/code]

[code]

DISC INFO:

Disc Title:     BD 1 - Concert Film
Disc Size:      39,776,846,885 bytes
Protection:     AACS
BD-Java:        Yes
BDInfo:         0.5.8

PLAYLIST REPORT:

Name:                   00002.MPLS
Length:                 0:00:46.046 (h:m:s.ms)
Size:                   81,624,384 bytes
Total Bitrate:          14.18 Mbps

VIDEO:

Codec                   Bitrate             Description     
-----                   -------             -----------     
MPEG-4 AVC Video        6916 kbps           1080p / 23.976 fps / 16:9 / High Profile 4.1

AUDIO:

Codec                           Language        Bitrate         Description     
-----                           --------        -------         -----------     
LPCM Audio                      Undetermined    2304 kbps       2.0 / 48 kHz / 2304 kbps / 24-bit
DTS-HD Master Audio             Undetermined    1543 kbps       5.1 / 48 kHz / 1543 kbps / 24-bit (DTS Core: 5.1 / 48 kHz / 1509 kbps / 24-bit)
Dolby TrueHD Audio              Undetermined    295 kbps        5.1 / 48 kHz / 295 kbps / 16-bit (AC3 Embedded: 5.1 / 48 kHz / 640 kbps)

FILES:

Name            Time In         Length          Size            Total Bitrate   
----            -------         ------          ----            -------------   
00002.M2TS      0:00:00.000     0:00:46.046     81,624,384      14,181          

CHAPTERS:

Number          Time In         Length          Avg Video Rate  Max 1-Sec Rate  Max 1-Sec Time  Max 5-Sec Rate  Max 5-Sec Time  Max 10Sec Rate  Max 10Sec Time  Avg Frame Size  Max Frame Size  Max Frame Time  
------          -------         ------          --------------  --------------  --------------  --------------  --------------  --------------  --------------  --------------  --------------  --------------  
1               0:00:00.000     0:00:46.046     6,916 kbps      9,563 kbps      00:00:27.485    7,568 kbps      00:00:24.149    6,929 kbps      00:00:24.190    36,059 bytes    415,763 bytes   00:00:27.527    

STREAM DIAGNOSTICS:

File            PID             Type            Codec           Language                Seconds                 Bitrate                 Bytes           Packets         
----            ---             ----            -----           --------                --------------          --------------          -------------   -----           
00002.M2TS      4113 (0x1011)   0x1B            AVC                                     46.046                  6,989                   40,224,726      219,598         
00002.M2TS      4352 (0x1100)   0x80            LPCM            und (Undetermined)      46.046                  2,308                   13,284,800      73,600          
00002.M2TS      4353 (0x1101)   0x86            DTS-HD MA       und (Undetermined)      46.046                  1,543                   8,879,520       55,497          
00002.M2TS      4354 (0x1102)   0x83            TrueHD          und (Undetermined)      46.046                  935                     5,381,988       76,629          

[/code]
<---- END FORUMS PASTE ---->

QUICK SUMMARY:

Disc Title: BD 1 - Concert Film
Disc Size: 39,776,846,885 bytes
Protection: AACS
BD-Java: Yes
Playlist: 00002.MPLS
Size: 81,624,384 bytes
Length: 0:00:46.046
Total Bitrate: 14.18 Mbps
Video: MPEG-4 AVC Video / 6916 kbps / 1080p / 23.976 fps / 16:9 / High Profile 4.1
Audio: Undetermined / LPCM Audio / 2.0 / 48 kHz / 2304 kbps / 24-bit
Audio: Undetermined / DTS-HD Master Audio / 5.1 / 48 kHz / 1543 kbps / 24-bit (DTS Core: 5.1 / 48 kHz / 1509 kbps / 24-bit)
Audio: Undetermined / Dolby TrueHD Audio / 5.1 / 48 kHz / 295 kbps / 16-bit (AC3 Embedded: 5.1 / 48 kHz / 640 kbps)


********************
PLAYLIST: 01004.MPLS
********************

<--- BEGIN FORUMS PASTE --->
[code]
                                                                                                                Total   Video                                             
Title                                                           Codec   Length  Movie Size      Disc Size       Bitrate Bitrate Main Audio Track                          Secondary Audio Track
-----                                                           ------  ------- --------------  --------------  ------- ------- ------------------                        ---------------------
01004.MPLS                                                      AVC     0:00:46 81,624,384      39,776,846,885  14.18   6.92    LPCM 2.0 2304Kbps (48kHz/24-bit)          DTS-HD Master 5.1 1543Kbps (48kHz/24-bit)
[/code]

[code]

DISC INFO:

Disc Title:     BD 1 - Concert Film
Disc Size:      39,776,846,885 bytes
Protection:     AACS
BD-Java:        Yes
BDInfo:         0.5.8

PLAYLIST REPORT:

Name:                   01004.MPLS
Length:                 0:00:46.046 (h:m:s.ms)
Size:                   81,624,384 bytes
Total Bitrate:          14.18 Mbps

VIDEO:

Codec                   Bitrate             Description     
-----                   -------             -----------     
MPEG-4 AVC Video        6916 kbps           1080p / 23.976 fps / 16:9 / High Profile 4.1

AUDIO:

Codec                           Language        Bitrate         Description     
-----                           --------        -------         -----------     
LPCM Audio                      Undetermined    2304 kbps       2.0 / 48 kHz / 2304 kbps / 24-bit
DTS-HD Master Audio             Undetermined    1543 kbps       5.1 / 48 kHz / 1543 kbps / 24-bit (DTS Core: 5.1 / 48 kHz / 1509 kbps / 24-bit)
Dolby TrueHD Audio              Undetermined    295 kbps        5.1 / 48 kHz / 295 kbps / 16-bit (AC3 Embedded: 5.1 / 48 kHz / 640 kbps)

FILES:

Name            Time In         Length          Size            Total Bitrate   
----            -------         ------          ----            -------------   
00002.M2TS      0:00:00.000     0:00:46.046     81,624,384      14,181          

CHAPTERS:

Number          Time In         Length          Avg Video Rate  Max 1-Sec Rate  Max 1-Sec Time  Max 5-Sec Rate  Max 5-Sec Time  Max 10Sec Rate  Max 10Sec Time  Avg Frame Size  Max Frame Size  Max Frame Time  
------          -------         ------          --------------  --------------  --------------  --------------  --------------  --------------  --------------  --------------  --------------  --------------  
1               0:00:00.000     0:00:44.044     6,874 kbps      9,563 kbps      00:00:27.485    7,568 kbps      00:00:24.149    6,929 kbps      00:00:24.190    35,802 bytes    415,763 bytes   00:00:27.527    
2               0:00:44.044     0:00:02.001     7,856 kbps      9,562 kbps      00:00:44.169    0 kbps          00:00:00.000    0 kbps          00:00:00.000    41,830 bytes    415,763 bytes   00:00:44.210    

STREAM DIAGNOSTICS:

File            PID             Type            Codec           Language                Seconds                 Bitrate                 Bytes           Packets         
----            ---             ----            -----           --------                --------------          --------------          -------------   -----           
00002.M2TS      4113 (0x1011)   0x1B            AVC                                     46.046                  6,989                   40,224,726      219,598         
00002.M2TS      4352 (0x1100)   0x80            LPCM            und (Undetermined)      46.046                  2,308                   13,284,800      73,600          
00002.M2TS      4353 (0x1101)   0x86            DTS-HD MA       und (Undetermined)      46.046                  1,543                   8,879,520       55,497          
00002.M2TS      4354 (0x1102)   0x83            TrueHD          und (Undetermined)      46.046                  935                     5,381,988       76,629          

[/code]
<---- END FORUMS PASTE ---->

QUICK SUMMARY:

Disc Title: BD 1 - Concert Film
Disc Size: 39,776,846,885 bytes
Protection: AACS
BD-Java: Yes
Playlist: 01004.MPLS
Size: 81,624,384 bytes
Length: 0:00:46.046
Total Bitrate: 14.18 Mbps
Video: MPEG-4 AVC Video / 6916 kbps / 1080p / 23.976 fps / 16:9 / High Profile 4.1
Audio: Undetermined / LPCM Audio / 2.0 / 48 kHz / 2304 kbps / 24-bit
Audio: Undetermined / DTS-HD Master Audio / 5.1 / 48 kHz / 1543 kbps / 24-bit (DTS Core: 5.1 / 48 kHz / 1509 kbps / 24-bit)
Audio: Undetermined / Dolby TrueHD Audio / 5.1 / 48 kHz / 295 kbps / 16-bit (AC3 Embedded: 5.1 / 48 kHz / 640 kbps)


********************
PLAYLIST: 00000.MPLS
********************

<--- BEGIN FORUMS PASTE --->
[code]
                                                                                                                Total   Video                                             
Title                                                           Codec   Length  Movie Size      Disc Size       Bitrate Bitrate Main Audio Track                          Secondary Audio Track
-----                                                           ------  ------- --------------  --------------  ------- ------- ------------------                        ---------------------
00000.MPLS                                                      AVC     0:00:36 132,286,464     39,776,846,885  28.74   25.52   DTS-HD Master 5.1 1714Kbps (48kHz/16-bit) 
[/code]

[code]

DISC INFO:

Disc Title:     BD 1 - Concert Film
Disc Size:      39,776,846,885 bytes
Protection:     AACS
BD-Java:        Yes
BDInfo:         0.5.8

PLAYLIST REPORT:

Name:                   00000.MPLS
Length:                 0:00:36.828 (h:m:s.ms)
Size:                   132,286,464 bytes
Total Bitrate:          28.74 Mbps

VIDEO:

Codec                   Bitrate             Description     
-----                   -------             -----------     
MPEG-4 AVC Video        25515 kbps          1080p / 23.976 fps / 16:9 / High Profile 4.1

AUDIO:

Codec                           Language        Bitrate         Description     
-----                           --------        -------         -----------     
DTS-HD Master Audio             Undetermined    1714 kbps       5.1 / 48 kHz / 1714 kbps / 16-bit (DTS Core: 5.1 / 48 kHz / 1509 kbps / 16-bit)

FILES:

Name            Time In         Length          Size            Total Bitrate   
----            -------         ------          ----            -------------   
00000.M2TS      0:00:00.000     0:00:36.828     132,286,464     28,736          

CHAPTERS:

Number          Time In         Length          Avg Video Rate  Max 1-Sec Rate  Max 1-Sec Time  Max 5-Sec Rate  Max 5-Sec Time  Max 10Sec Rate  Max 10Sec Time  Avg Frame Size  Max Frame Size  Max Frame Time  
------          -------         ------          --------------  --------------  --------------  --------------  --------------  --------------  --------------  --------------  --------------  --------------  
1               0:00:00.000     0:00:36.828     25,515 kbps     50,993 kbps     00:00:18.309    40,066 kbps     00:00:14.139    34,464 kbps     00:00:13.972    133,176 bytes   445,444 bytes   00:00:25.275    

STREAM DIAGNOSTICS:

File            PID             Type            Codec           Language                Seconds                 Bitrate                 Bytes           Packets         
----            ---             ----            -----           --------                --------------          --------------          -------------   -----           
00000.M2TS      4113 (0x1011)   0x1B            AVC                                     36.745                  25,573                  117,461,249     638,887         
00000.M2TS      4352 (0x1100)   0x86            DTS-HD MA       und (Undetermined)      36.745                  1,718                   7,892,648       48,480          

[/code]
<---- END FORUMS PASTE ---->

QUICK SUMMARY:

Disc Title: BD 1 - Concert Film
Disc Size: 39,776,846,885 bytes
Protection: AACS
BD-Java: Yes
Playlist: 00000.MPLS
Size: 132,286,464 bytes
Length: 0:00:36.828
Total Bitrate: 28.74 Mbps
Video: MPEG-4 AVC Video / 25515 kbps / 1080p / 23.976 fps / 16:9 / High Profile 4.1
Audio: Undetermined / DTS-HD Master Audio / 5.1 / 48 kHz / 1714 kbps / 16-bit (DTS Core: 5.1 / 48 kHz / 1509 kbps / 16-bit)


********************
PLAYLIST: 01000.MPLS
********************

<--- BEGIN FORUMS PASTE --->
[code]
                                                                                                                Total   Video                                             
Title                                                           Codec   Length  Movie Size      Disc Size       Bitrate Bitrate Main Audio Track                          Secondary Audio Track
-----                                                           ------  ------- --------------  --------------  ------- ------- ------------------                        ---------------------
01000.MPLS                                                      AVC     0:00:36 132,286,464     39,776,846,885  28.74   25.52   DTS-HD Master 5.1 1714Kbps (48kHz/16-bit) 
[/code]

[code]

DISC INFO:

Disc Title:     BD 1 - Concert Film
Disc Size:      39,776,846,885 bytes
Protection:     AACS
BD-Java:        Yes
BDInfo:         0.5.8

PLAYLIST REPORT:

Name:                   01000.MPLS
Length:                 0:00:36.828 (h:m:s.ms)
Size:                   132,286,464 bytes
Total Bitrate:          28.74 Mbps

VIDEO:

Codec                   Bitrate             Description     
-----                   -------             -----------     
MPEG-4 AVC Video        25515 kbps          1080p / 23.976 fps / 16:9 / High Profile 4.1

AUDIO:

Codec                           Language        Bitrate         Description     
-----                           --------        -------         -----------     
DTS-HD Master Audio             Undetermined    1714 kbps       5.1 / 48 kHz / 1714 kbps / 16-bit (DTS Core: 5.1 / 48 kHz / 1509 kbps / 16-bit)

FILES:

Name            Time In         Length          Size            Total Bitrate   
----            -------         ------          ----            -------------   
00000.M2TS      0:00:00.000     0:00:36.828     132,286,464     28,736          

CHAPTERS:

Number          Time In         Length          Avg Video Rate  Max 1-Sec Rate  Max 1-Sec Time  Max 5-Sec Rate  Max 5-Sec Time  Max 10Sec Rate  Max 10Sec Time  Avg Frame Size  Max Frame Size  Max Frame Time  
------          -------         ------          --------------  --------------  --------------  --------------  --------------  --------------  --------------  --------------  --------------  --------------  
1               0:00:00.000     0:00:08.008     22,214 kbps     40,436 kbps     00:00:01.376    27,055 kbps     00:00:01.459    0 kbps          00:00:00.000    115,215 bytes   388,506 bytes   00:00:07.298    
2               0:00:08.008     0:00:05.422     10,283 kbps     21,370 kbps     00:00:09.092    11,138 kbps     00:00:08.216    0 kbps          00:00:00.000    53,612 bytes    431,477 bytes   00:00:10.051    
3               0:00:13.430     0:00:10.593     32,567 kbps     50,993 kbps     00:00:18.309    40,066 kbps     00:00:14.139    34,464 kbps     00:00:13.972    169,788 bytes   418,466 bytes   00:00:18.810    
4               0:00:24.023     0:00:12.804     28,196 kbps     47,058 kbps     00:00:25.191    36,150 kbps     00:00:25.191    33,079 kbps     00:00:25.191    147,964 bytes   445,444 bytes   00:00:25.275    

STREAM DIAGNOSTICS:

File            PID             Type            Codec           Language                Seconds                 Bitrate                 Bytes           Packets         
----            ---             ----            -----           --------                --------------          --------------          -------------   -----           
00000.M2TS      4113 (0x1011)   0x1B            AVC                                     36.745                  25,573                  117,461,249     638,887         
00000.M2TS      4352 (0x1100)   0x86            DTS-HD MA       und (Undetermined)      36.745                  1,718                   7,892,648       48,480          

[/code]
<---- END FORUMS PASTE ---->

QUICK SUMMARY:

Disc Title: BD 1 - Concert Film
Disc Size: 39,776,846,885 bytes
Protection: AACS
BD-Java: Yes
Playlist: 01000.MPLS
Size: 132,286,464 bytes
Length: 0:00:36.828
Total Bitrate: 28.74 Mbps
Video: MPEG-4 AVC Video / 25515 kbps / 1080p / 23.976 fps / 16:9 / High Profile 4.1
Audio: Undetermined / DTS-HD Master Audio / 5.1 / 48 kHz / 1714 kbps / 16-bit (DTS Core: 5.1 / 48 kHz / 1509 kbps / 16-bit)




Create a new paste based on this one


Comments: